eztvx.to | eztvstatus.org
Search title:  
TV Packs only
 

The Continental 2023 S01E02 1080p x265-ELiTE EZTV

Episode Breakdown
The Continental: From the World of John Wick
The Continental: From the World of John Wick TV Show S01E02

Season: 1
Episode: 2
Air Date: 29 September, 2023
Download Links
     Torrent Download     Magnet Download
     Anonymous Download
Added 8 months ago by eztv (verified).
Tracker Statistics
Seeds: 14
Peers: 0
Stats generated @ 16:16 on 25th Jun 2024
Torrent Info
Torrent File: The.Continental.2023.S01E02.1080p.x265-ELiTE[eztv.re].mkv
Torrent Hash: 6F591E52D8B2991A3CAF5F22F34A3700B7BA70DD
Filesize: 626 MB
Released: 29th Sep 2023

File Format: MKV (Matroska)
Resolution: 1920x1080 px
Aspect Ratio: 16:9
Alternate Releases S L
The Continental 2023 S01E02 Night 2 Loyalty to the Master 1080p AMZN WEB-DL DDP5 1 H 264-NTb 6 2
The Continental 2023 S01E02 720p x264-FENiX 6 2
The Continental 2023 S01E02 720p x265-T0PAZ 10 1
The Continental 2023 S01E02 Night 2 Loyalty to the Master 1080p PCOK WEB-DL DDP5 1 x264-NTb 33 1
The Continental S01E02 MULTi 1080p WEB H264-AMB3R 1 0
The Continental S01E02 480p x264-mSD 6 0
The Continental S01E02 XviD-AFG 6 0

The Continental: From the World of John Wick S01E02 - Loyalty to the Master

Summary:

Knowing he can't attack Cormac alone, Winston recruits a crew to overthrow the Continental.



The Continental 2023 S01E02 1080p x265-ELiTE EZTV
The Continental: From the World of John Wick S1E2 Screenshot


General
Unique ID: 108090017928082545606986010665198606633 (0x5151615635AB1037EBADDCB7D740D929)
Complete name: The.Continental.2023.S01E02.1080p.x265-ELiTE.mkv
Format: Matroska
Format version: Version 4
File size: 626 MiB
Duration: 1 h 20 min
Overall bit rate: 1 090 kb/s
Movie name: The.Continental.2023.S01E02
Writing application: Lavf59.16.100
Writing library: Lavf59.16.100
Comment: ELiTE-Fri-29-Sep-2023,15:31:54,1080p,22,faster,7814000,1,0
ErrorDetectionType: Per level 1

Video
ID: 1
Format: HEVC
Format/Info: High Efficiency Video Coding
Format profile: Main@L4@Main
Codec ID: V_MPEGH/ISO/HEVC
Duration: 1 h 19 min
Bit rate: 620 kb/s
Width: 1 920 pixels
Height: 1 080 pixels
Display aspect ratio: 16:9
Frame rate mode: Variable
Original frame rate: 23.976 FPS
Color space: YUV
Chroma subsampling: 4:2:0 (Type 0)
Bit depth: 8 bits
Stream size: 351 MiB (56%)
Writing library: x265 0.0:[Linux][GCC 4.8.5][64 bit] 8bit
Encoding settings: cpuid=1111039 / frame-threads=4 / wpp / no-pmode / no-pme / no-psnr / no-ssim / log-level=2 / input-csp=1 / input-res=1920x1080 / interlace=0 / total-frames=0 / level-idc=0 / high-tier=1 / uhd-bd=0 / ref=2 / no-allow-non-conformance / no-repeat-headers / annexb / no-aud / no-hrd / info / hash=0 / no-temporal-layers / open-gop / min-keyint=23 / keyint=250 / gop-lookahead=0 / bframes=4 / b-adapt=0 / b-pyramid / bframe-bias=0 / rc-lookahead=15 / lookahead-slices=6 / scenecut=40 / hist-scenecut=0 / radl=0 / no-splice / no-intra-refresh / ctu=64 / min-cu-size=8 / no-rect / no-amp / max-tu-size=32 / tu-inter-depth=1 / tu-intra-depth=1 / limit-tu=0 / rdoq-level=0 / dynamic-rd=0.00 / no-ssim-rd / signhide / no-tskip / nr-intra=0 / nr-inter=0 / no-constrained-intra / strong-intra-smoothing / max-merge=2 / limit-refs=3 / no-limit-modes / me=1 / subme=2 / merange=57 / temporal-mvp / no-frame-dup / no-hme / weightp / no-weightb / no-analyze-src-pics / deblock=0:0 / sao / no-sao-non-deblock / rd=2 / selective-sao=4 / early-skip / rskip / fast-intra / no-tskip-fast / no-cu-lossless / no-b-intra / no-splitrd-skip / rdpenalty=0 / psy-rd=2.00 / psy-rdoq=0.00 / no-rd-refine / no-lossless / cbqpoffs=0 / crqpoffs=0 / rc=crf / crf=22.0 / qcomp=0.60 / qpstep=4 / stats-write=0 / stats-read=0 / ipratio=1.40 / pbratio=1.30 / aq-mode=2 / aq-strength=1.00 / cutree / zone-count=0 / no-strict-cbr / qg-size=32 / no-rc-grain / qpmax=69 / qpmin=0 / no-const-vbv / sar=1 / overscan=0 / videoformat=5 / range=0 / colorprim=1 / transfer=1 / colormatrix=1 / chromaloc=1 / chromaloc-top=0 / chromaloc-bottom=0 / display-window=0 / cll=0,0 / min-luma=0 / max-luma=255 / log2-max-poc-lsb=8 / vui-timing-info / vui-hrd-info / slices=1 / no-opt-qp-pps / no-opt-ref-list-length-pps / no-multi-pass-opt-rps / scenecut-bias=0.05 / hist-threshold=0.01 / no-opt-cu-delta-qp / no-aq-motion / no-hdr10 / no-hdr10-opt / no-dhdr10-opt / no-idr-recovery-sei / analysis-reuse-level=0 / analysis-save-reuse-level=0 / analysis-load-reuse-level=0 / scale-factor=0 / refine-intra=0 / refine-inter=0 / refine-mv=1 / refine-ctu-distortion=0 / no-limit-sao / ctu-info=0 / no-lowpass-dct / refine-analysis-type=0 / copy-pic=1 / max-ausize-factor=1.0 / no-dynamic-refine / no-single-sei / no-hevc-aq / no-svt / no-field / qp-adaptation-range=1.00 / no-scenecut-aware-qpconformance-window-offsets / right=0 / bottom=0 / decoder-max-rate=0
Default: Yes
Forced: No
Color range: Limited
Color primaries: BT.709
Transfer characteristics: BT.709
Matrix coefficients: BT.709

Audio
ID: 2
Format: AC-3
Format/Info: Audio Coding 3
Commercial name: Dolby Digital
Codec ID: A_AC3
Duration: 1 h 20 min
Bit rate mode: Constant
Bit rate: 448 kb/s
Channel(s): 6 channels
Channel layout: L R C LFE Ls Rs
Sampling rate: 48.0 kHz
Frame rate: 31.250 FPS (1536 SPF)
Bit depth: 32 bits
Compression mode: Lossy
Stream size: 257 MiB (41%)
Writing library: Lavc59.18.100 ac3
Language: English
Service kind: Complete Main
Default: Yes
Forced: No

Text #1
ID: 3
Format: UTF-8
Codec ID: S_TEXT/UTF8
Codec ID/Info: UTF-8 Plain Text
Duration: 1 h 3 min
Language: English
Default: No
Forced: Yes

Text #2
ID: 4
Format: UTF-8
Codec ID: S_TEXT/UTF8
Codec ID/Info: UTF-8 Plain Text
Duration: 1 h 19 min
Language: English
Default: No
Forced: No

Menu
00:00:00.000: 00:00:00.000
01:18:02.094: 01:18:02.094
ssl  EZTV RSS EZTV Status | EZTV API | DMCA: [email protected]