eztvx.to | eztvstatus.org
Search title:  
TV Packs only
 

The Continental 2023 S01E02 Night 2 Loyalty to the Master 1080p AMZN WEB-DL DDP5 1 H 264-NTb EZTV

Episode Breakdown
The Continental: From the World of John Wick
The Continental: From the World of John Wick TV Show S01E02

Season: 1
Episode: 2
Air Date: 29 September, 2023
Download Links
     Torrent Download     Magnet Download
     Anonymous Download
Added 8 months ago by eztv (verified).
Tracker Statistics
Seeds: 6
Peers: 2
Stats generated @ 17:19 on 25th Jun 2024
Torrent Info
Torrent File: The.Continental.2023.S01E02.Night.2.Loyalty.to.the.Master.1080p.AMZN.WEB-DL.DDP5.1.H.264-NTb[eztv.re].mkv
Torrent Hash: DFB536E8E0C4D5112E7F7161696BD350EEE00F39
Filesize: 3.13 GB
Released: 29th Sep 2023

File Format: MKV (Matroska)
Resolution: 1920x1080 px
Aspect Ratio: 16:9
Alternate Releases S L
The Continental 2023 S01E02 720p x264-FENiX 6 2
The Continental 2023 S01E02 720p x265-T0PAZ 10 1
The Continental 2023 S01E02 1080p x265-ELiTE 14 0
The Continental 2023 S01E02 Night 2 Loyalty to the Master 1080p PCOK WEB-DL DDP5 1 x264-NTb 33 1
The Continental S01E02 MULTi 1080p WEB H264-AMB3R 1 0
The Continental S01E02 480p x264-mSD 6 0
The Continental S01E02 XviD-AFG 6 0

The Continental: From the World of John Wick S01E02 - Loyalty to the Master

Summary:

Knowing he can't attack Cormac alone, Winston recruits a crew to overthrow the Continental.



The Continental 2023 S01E02 Night 2 Loyalty to the Master 1080p AMZN WEB-DL DDP5 1 H 264-NTb EZTV
The Continental: From the World of John Wick S1E2 Screenshot


General
Unique ID: 44540174449517613310429256098827841794 (0x218220255BF2B10C81A93A491D85B102)
Complete name: The.Continental.2023.S01E02.Night.2.Loyalty.to.the.Master.1080p.AMZN.WEB-DL.DDP5.1.H.264-NTb.mkv
Format: Matroska
Format version: Version 4
File size: 3.13 GiB
Duration: 1 h 20 min
Overall bit rate: 5 593 kb/s
Frame rate: 23.976 FPS
Writing application: mkvmerge v78.0 ('Running') 64-bit
Writing library: libebml v1.4.4 + libmatroska v1.7.1

Video
ID: 1
Format: AVC
Format/Info: Advanced Video Codec
Format profile: High@L4
Format settings: CABAC / 4 Ref Frames
Format settings, CABAC: Yes
Format settings, Reference frames: 4 frames
Codec ID: V_MPEG4/ISO/AVC
Duration: 1 h 20 min
Bit rate mode: Constant
Bit rate: 5 138 kb/s
Nominal bit rate: 10 000 kb/s
Width: 1 920 pixels
Height: 800 pixels
Display aspect ratio: 2.40:1
Frame rate mode: Constant
Frame rate: 23.976 (24000/1001) FPS
Color space: YUV
Chroma subsampling: 4:2:0
Bit depth: 8 bits
Scan type: Progressive
Bits/(Pixel*Frame): 0.140
Stream size: 2.88 GiB (92%)
Default: Yes
Forced: No
Color range: Limited
Color primaries: BT.709
Transfer characteristics: BT.709
Matrix coefficients: BT.709

Audio
ID: 2
Format: E-AC-3 JOC
Format/Info: Enhanced AC-3 with Joint Object Coding
Commercial name: Dolby Digital Plus with Dolby Atmos
Codec ID: A_EAC3
Duration: 1 h 20 min
Bit rate mode: Constant
Bit rate: 448 kb/s
Channel(s): 6 channels
Channel layout: L R C LFE Ls Rs
Sampling rate: 48.0 kHz
Frame rate: 31.250 FPS (1536 SPF)
Compression mode: Lossy
Stream size: 257 MiB (8%)
Language: English
Service kind: Complete Main
Default: Yes
Forced: No
Complexity index: 16
Number of dynamic objects: 15
Bed channel count: 1 channel
Bed channel configuration: LFE

Text #1
ID: 3
Format: UTF-8
Codec ID: S_TEXT/UTF8
Codec ID/Info: UTF-8 Plain Text
Duration: 57 min 36 s
Bit rate: 2 b/s
Frame rate: 0.012 FPS
Count of elements: 42
Stream size: 1.07 KiB (0%)
Title: Forced
Language: English (US)
Default: Yes
Forced: Yes

Text #2
ID: 4
Format: UTF-8
Codec ID: S_TEXT/UTF8
Codec ID/Info: UTF-8 Plain Text
Duration: 1 h 18 min
Bit rate: 68 b/s
Frame rate: 0.269 FPS
Count of elements: 1273
Stream size: 39.5 KiB (0%)
Language: English (US)
Default: No
Forced: No

Text #3
ID: 5
Format: UTF-8
Codec ID: S_TEXT/UTF8
Codec ID/Info: UTF-8 Plain Text
Duration: 1 h 18 min
Bit rate: 80 b/s
Frame rate: 0.327 FPS
Count of elements: 1548
Stream size: 46.5 KiB (0%)
Title: SDH
Language: English (US)
Default: No
Forced: No

Text #4
ID: 6
Format: UTF-8
Codec ID: S_TEXT/UTF8
Codec ID/Info: UTF-8 Plain Text
Duration: 1 h 18 min
Bit rate: 84 b/s
Frame rate: 0.213 FPS
Count of elements: 1006
Stream size: 48.6 KiB (0%)
Language: Arabic (001)
Default: No
Forced: No

Text #5
ID: 7
Format: UTF-8
Codec ID: S_TEXT/UTF8
Codec ID/Info: UTF-8 Plain Text
Duration: 1 h 18 min
Bit rate: 47 b/s
Frame rate: 0.212 FPS
Count of elements: 1004
Stream size: 27.5 KiB (0%)
Language: Czech (CZ)
Default: No
Forced: No

Text #6
ID: 8
Format: UTF-8
Codec ID: S_TEXT/UTF8
Codec ID/Info: UTF-8 Plain Text
Duration: 1 h 18 min
Bit rate: 48 b/s
Frame rate: 0.212 FPS
Count of elements: 1005
Stream size: 28.0 KiB (0%)
Language: Danish (DK)
Default: No
Forced: No

Text #7
ID: 9
Format: UTF-8
Codec ID: S_TEXT/UTF8
Codec ID/Info: UTF-8 Plain Text
Duration: 1 h 18 min
Bit rate: 48 b/s
Frame rate: 0.212 FPS
Count of elements: 1002
Stream size: 28.1 KiB (0%)
Language: German (DE)
Default: No
Forced: No

Text #8
ID: 10
Format: UTF-8
Codec ID: S_TEXT/UTF8
Codec ID/Info: UTF-8 Plain Text
Duration: 1 h 18 min
Bit rate: 89 b/s
Frame rate: 0.211 FPS
Count of elements: 1000
Stream size: 51.8 KiB (0%)
Language: Greek (GR)
Default: No
Forced: No

Text #9
ID: 11
Format: UTF-8
Codec ID: S_TEXT/UTF8
Codec ID/Info: UTF-8 Plain Text
Duration: 1 h 18 min
Bit rate: 49 b/s
Frame rate: 0.188 FPS
Count of elements: 888
Stream size: 28.7 KiB (0%)
Title: Spanish (Latin America)
Language: Spanish (Latin America)
Default: No
Forced: No

Text #10
ID: 12
Format: UTF-8
Codec ID: S_TEXT/UTF8
Codec ID/Info: UTF-8 Plain Text
Duration: 1 h 18 min
Bit rate: 50 b/s
Frame rate: 0.211 FPS
Count of elements: 1000
Stream size: 29.0 KiB (0%)
Title: Spanish (Spain)
Language: Spanish (ES)
Default: No
Forced: No

Text #11
ID: 13
Format: UTF-8
Codec ID: S_TEXT/UTF8
Codec ID/Info: UTF-8 Plain Text
Duration: 1 h 18 min
Bit rate: 46 b/s
Frame rate: 0.212 FPS
Count of elements: 1002
Stream size: 26.7 KiB (0%)
Language: Finnish (FI)
Default: No
Forced: No

Text #12
ID: 14
Format: UTF-8
Codec ID: S_TEXT/UTF8
Codec ID/Info: UTF-8 Plain Text
Duration: 1 h 18 min
Bit rate: 50 b/s
Frame rate: 0.211 FPS
Count of elements: 999
Stream size: 29.4 KiB (0%)
Language: fil (PH)
Default: No
Forced: No

Text #13
ID: 15
Format: UTF-8
Codec ID: S_TEXT/UTF8
Codec ID/Info: UTF-8 Plain Text
Duration: 1 h 18 min
Bit rate: 46 b/s
Frame rate: 0.212 FPS
Count of elements: 1002
Stream size: 27.0 KiB (0%)
Language: French (FR)
Default: No
Forced: No

Text #14
ID: 16
Format: UTF-8
Codec ID: S_TEXT/UTF8
Codec ID/Info: UTF-8 Plain Text
Duration: 1 h 18 min
Bit rate: 121 b/s
Frame rate: 0.214 FPS
Count of elements: 1011
Stream size: 70.3 KiB (0%)
Language: Hindi (IN)
Default: No
Forced: No

Text #15
ID: 17
Format: UTF-8
Codec ID: S_TEXT/UTF8
Codec ID/Info: UTF-8 Plain Text
Duration: 1 h 18 min
Bit rate: 50 b/s
Frame rate: 0.211 FPS
Count of elements: 1000
Stream size: 29.3 KiB (0%)
Language: Hungarian (HU)
Default: No
Forced: No

Text #16
ID: 18
Format: UTF-8
Codec ID: S_TEXT/UTF8
Codec ID/Info: UTF-8 Plain Text
Duration: 1 h 18 min
Bit rate: 47 b/s
Frame rate: 0.212 FPS
Count of elements: 1004
Stream size: 27.2 KiB (0%)
Language: Indonesian (ID)
Default: No
Forced: No

Text #17
ID: 19
Format: UTF-8
Codec ID: S_TEXT/UTF8
Codec ID/Info: UTF-8 Plain Text
Duration: 1 h 18 min
Bit rate: 47 b/s
Frame rate: 0.212 FPS
Count of elements: 1003
Stream size: 27.4 KiB (0%)
Language: Italian (IT)
Default: No
Forced: No

Text #18
ID: 20
Format: UTF-8
Codec ID: S_TEXT/UTF8
Codec ID/Info: UTF-8 Plain Text
Duration: 1 h 18 min
Bit rate: 43 b/s
Frame rate: 0.188 FPS
Count of elements: 889
Stream size: 25.0 KiB (0%)
Language: Japanese (JP)
Default: No
Forced: No

Text #19
ID: 21
Format: UTF-8
Codec ID: S_TEXT/UTF8
Codec ID/Info: UTF-8 Plain Text
Duration: 1 h 18 min
Bit rate: 60 b/s
Frame rate: 0.214 FPS
Count of elements: 1011
Stream size: 34.7 KiB (0%)
Language: Korean (KR)
Default: No
Forced: No

Text #20
ID: 22
Format: UTF-8
Codec ID: S_TEXT/UTF8
Codec ID/Info: UTF-8 Plain Text
Duration: 1 h 18 min
Bit rate: 51 b/s
Frame rate: 0.213 FPS
Count of elements: 1006
Stream size: 29.5 KiB (0%)
Language: Malay (MY)
Default: No
Forced: No

Text #21
ID: 23
Format: UTF-8
Codec ID: S_TEXT/UTF8
Codec ID/Info: UTF-8 Plain Text
Duration: 1 h 18 min
Bit rate: 48 b/s
Frame rate: 0.212 FPS
Count of elements: 1001
Stream size: 28.1 KiB (0%)
Language: Norwegian Bokmal (NO)
Default: No
Forced: No

Text #22
ID: 24
Format: UTF-8
Codec ID: S_TEXT/UTF8
Codec ID/Info: UTF-8 Plain Text
Duration: 1 h 18 min
Bit rate: 46 b/s
Frame rate: 0.212 FPS
Count of elements: 1001
Stream size: 27.0 KiB (0%)
Language: Dutch (NL)
Default: No
Forced: No

Text #23
ID: 25
Format: UTF-8
Codec ID: S_TEXT/UTF8
Codec ID/Info: UTF-8 Plain Text
Duration: 1 h 18 min
Bit rate: 48 b/s
Frame rate: 0.209 FPS
Count of elements: 991
Stream size: 27.9 KiB (0%)
Language: Polish (PL)
Default: No
Forced: No

Text #24
ID: 26
Format: UTF-8
Codec ID: S_TEXT/UTF8
Codec ID/Info: UTF-8 Plain Text
Duration: 1 h 18 min
Bit rate: 45 b/s
Frame rate: 0.211 FPS
Count of elements: 996
Stream size: 26.3 KiB (0%)
Title: Portuguese (Brazil)
Language: Portuguese (BR)
Default: No
Forced: No

Text #25
ID: 27
Format: UTF-8
Codec ID: S_TEXT/UTF8
Codec ID/Info: UTF-8 Plain Text
Duration: 1 h 18 min
Bit rate: 50 b/s
Frame rate: 0.211 FPS
Count of elements: 996
Stream size: 28.9 KiB (0%)
Title: Portuguese (Portugal)
Language: Portuguese (PT)
Default: No
Forced: No

Text #26
ID: 28
Format: UTF-8
Codec ID: S_TEXT/UTF8
Codec ID/Info: UTF-8 Plain Text
Duration: 1 h 18 min
Bit rate: 54 b/s
Frame rate: 0.212 FPS
Count of elements: 1002
Stream size: 31.4 KiB (0%)
Language: Romanian (RO)
Default: No
Forced: No

Text #27
ID: 29
Format: UTF-8
Codec ID: S_TEXT/UTF8
Codec ID/Info: UTF-8 Plain Text
Duration: 1 h 18 min
Bit rate: 48 b/s
Frame rate: 0.213 FPS
Count of elements: 1006
Stream size: 28.1 KiB (0%)
Language: Swedish (SE)
Default: No
Forced: No

Text #28
ID: 30
Format: UTF-8
Codec ID: S_TEXT/UTF8
Codec ID/Info: UTF-8 Plain Text
Duration: 1 h 18 min
Bit rate: 130 b/s
Frame rate: 0.214 FPS
Count of elements: 1011
Stream size: 75.5 KiB (0%)
Language: Tamil (IN)
Default: No
Forced: No

Text #29
ID: 31
Format: UTF-8
Codec ID: S_TEXT/UTF8
Codec ID/Info: UTF-8 Plain Text
Duration: 1 h 18 min
Bit rate: 129 b/s
Frame rate: 0.213 FPS
Count of elements: 1010
Stream size: 74.5 KiB (0%)
Language: Telugu (IN)
Default: No
Forced: No

Text #30
ID: 32
Format: UTF-8
Codec ID: S_TEXT/UTF8
Codec ID/Info: UTF-8 Plain Text
Duration: 1 h 18 min
Bit rate: 130 b/s
Frame rate: 0.213 FPS
Count of elements: 1010
Stream size: 75.2 KiB (0%)
Language: Thai (TH)
Default: No
Forced: No

Text #31
ID: 33
Format: UTF-8
Codec ID: S_TEXT/UTF8
Codec ID/Info: UTF-8 Plain Text
Duration: 1 h 18 min
Bit rate: 49 b/s
Frame rate: 0.213 FPS
Count of elements: 1006
Stream size: 28.4 KiB (0%)
Language: Turkish (TR)
Default: No
Forced: No

Text #32
ID: 34
Format: UTF-8
Codec ID: S_TEXT/UTF8
Codec ID/Info: UTF-8 Plain Text
Duration: 1 h 18 min
Bit rate: 59 b/s
Frame rate: 0.206 FPS
Count of elements: 973
Stream size: 34.5 KiB (0%)
Language: Vietnamese (VN)
Default: No
Forced: No

Text #33
ID: 35
Format: UTF-8
Codec ID: S_TEXT/UTF8
Codec ID/Info: UTF-8 Plain Text
Duration: 1 h 18 min
Bit rate: 46 b/s
Frame rate: 0.213 FPS
Count of elements: 1010
Stream size: 26.8 KiB (0%)
Title: Chinese (Simplified)
Language: Chinese (Simplified)
Default: No
Forced: No

Text #34
ID: 36
Format: UTF-8
Codec ID: S_TEXT/UTF8
Codec ID/Info: UTF-8 Plain Text
Duration: 1 h 18 min
Bit rate: 45 b/s
Frame rate: 0.213 FPS
Count of elements: 1010
Stream size: 26.5 KiB (0%)
Title: Chinese (Traditional)
Language: Chinese (Traditional)
Default: No
Forced: No

Menu
00:00:00.000: Amazon Original
00:00:06.000: Previously On
00:01:22.000: Scene 3
00:04:41.000: Opening Credits
00:05:41.000: Title Sequence
00:05:54.000: Scene 6
00:09:00.000: Scene 7
00:10:13.000: Scene 8
00:12:24.000: Scene 9
00:16:22.000: Scene 10
00:18:52.000: Scene 11
00:21:33.000: Scene 12
00:23:25.000: Scene 13
00:25:26.000: Scene 14
00:29:08.000: Scene 15
00:31:20.000: Scene 16
00:32:46.000: Scene 17
00:35:34.000: Scene 18
00:38:53.000: Scene 19
00:40:38.000: Scene 20
00:42:08.000: Scene 21
00:43:38.000: Scene 22
00:45:15.000: Scene 23
00:46:57.000: Scene 24
00:50:58.000: Scene 25
00:52:20.000: Scene 26
00:56:22.000: Scene 27
00:59:07.000: Scene 28
00:59:38.000: Scene 29
01:01:56.000: Scene 30
01:03:54.000: Scene 31
01:05:02.000: Scene 32
01:05:50.000: Scene 33
01:08:06.000: Scene 34
01:12:25.000: Scene 35
01:12:51.000: Scene 36
01:17:58.000: End Credits
ssl  EZTV RSS EZTV Status | EZTV API | DMCA: [email protected]