eztvx.to | eztvstatus.org
Search title:  
TV Packs only
 

The Continental 2023 S01E01 Night 1 Brothers in Arms 1080p AMZN WEB-DL DDP5 1 H 264-NTb EZTV

Episode Breakdown
The Continental: From the World of John Wick
The Continental: From the World of John Wick TV Show S01E01

Season: 1
Episode: 1
Air Date: 22 September, 2023
Download Links
     Torrent Download     Magnet Download
     Anonymous Download
Added 9 months ago by eztv (verified).
Tracker Statistics
Seeds: 6
Peers: 1
Stats generated @ 17:45 on 25th Jun 2024
Torrent Info
Torrent File: The.Continental.2023.S01E01.Night.1.Brothers.in.Arms.1080p.AMZN.WEB-DL.DDP5.1.H.264-NTb[eztv.re].mkv
Torrent Hash: 2DBB403ACF263FC7AEAAD0E16ADE7DF31382F2C9
Filesize: 3.48 GB
Released: 22nd Sep 2023

File Format: MKV (Matroska)
Resolution: 1920x1080 px
Aspect Ratio: 16:9
Alternate Releases S L
The Continental S01E01 720p WEB h264-ETHEL 15 3
The Continental S01E01 1080p WEB h264-ETHEL 23 1
The Continental S01E01 Brothers in Arms 1080p PCOK WEB-DL DDP5 1 H 264-AceMovies 2 2
The Continental S01E01 480p x264-mSD 5 2
The Continental S01E01 720p HEVC x265-MeGusta 3 1
The Continental S01E01 Night 1 Brothers in Arms 1080p PCOK WEB-DL DDP5 1 x264-NTb 1 1
The Continental S01E01 1080p HEVC x265-MeGusta 44 10

The Continental: From the World of John Wick S01E01 - Brothers in Arms

Summary:

Winston Scott gets roped into a vast conspiracy triggered by his brother's raid on the Continental.



The Continental 2023 S01E01 Night 1 Brothers in Arms 1080p AMZN WEB-DL DDP5 1 H 264-NTb EZTV
The Continental: From the World of John Wick S1E1 Screenshot


General
Unique ID: 301659429127262356363231289493450261442 (0xE2F17E2546CD83B736FDD7FEB0AE03C2)
Complete name: The.Continental.2023.S01E01.Night.1.Brothers.in.Arms.1080p.AMZN.WEB-DL.DDP5.1.H.264-NTb.mkv
Format: Matroska
Format version: Version 4
File size: 3.48 GiB
Duration: 1 h 27 min
Overall bit rate: 5 702 kb/s
Frame rate: 23.976 FPS
Writing application: mkvmerge v78.0 ('Running') 64-bit
Writing library: libebml v1.4.4 + libmatroska v1.7.1

Video
ID: 1
Format: AVC
Format/Info: Advanced Video Codec
Format profile: High@L4
Format settings: CABAC / 4 Ref Frames
Format settings, CABAC: Yes
Format settings, Reference frames: 4 frames
Codec ID: V_MPEG4/ISO/AVC
Duration: 1 h 27 min
Bit rate mode: Constant
Bit rate: 5 056 kb/s
Nominal bit rate: 10 000 kb/s
Width: 1 920 pixels
Height: 800 pixels
Display aspect ratio: 2.40:1
Frame rate mode: Constant
Frame rate: 23.976 (24000/1001) FPS
Color space: YUV
Chroma subsampling: 4:2:0
Bit depth: 8 bits
Scan type: Progressive
Bits/(Pixel*Frame): 0.137
Stream size: 3.09 GiB (89%)
Default: Yes
Forced: No
Color range: Limited
Color primaries: BT.709
Transfer characteristics: BT.709
Matrix coefficients: BT.709

Audio
ID: 2
Format: E-AC-3
Format/Info: Enhanced AC-3
Commercial name: Dolby Digital Plus
Codec ID: A_EAC3
Duration: 1 h 27 min
Bit rate mode: Constant
Bit rate: 640 kb/s
Channel(s): 6 channels
Channel layout: L R C LFE Ls Rs
Sampling rate: 48.0 kHz
Frame rate: 31.250 FPS (1536 SPF)
Compression mode: Lossy
Stream size: 400 MiB (11%)
Language: English (US)
Service kind: Complete Main
Default: Yes
Forced: No

Text #1
ID: 3
Format: UTF-8
Codec ID: S_TEXT/UTF8
Codec ID/Info: UTF-8 Plain Text
Duration: 1 h 12 min
Bit rate: 1 b/s
Frame rate: 0.010 FPS
Count of elements: 45
Stream size: 1.01 KiB (0%)
Title: Forced
Language: English (US)
Default: Yes
Forced: Yes

Text #2
ID: 4
Format: UTF-8
Codec ID: S_TEXT/UTF8
Codec ID/Info: UTF-8 Plain Text
Duration: 1 h 25 min
Bit rate: 56 b/s
Frame rate: 0.239 FPS
Count of elements: 1218
Stream size: 35.4 KiB (0%)
Language: English (US)
Default: No
Forced: No

Text #3
ID: 5
Format: UTF-8
Codec ID: S_TEXT/UTF8
Codec ID/Info: UTF-8 Plain Text
Duration: 1 h 25 min
Bit rate: 67 b/s
Frame rate: 0.278 FPS
Count of elements: 1425
Stream size: 42.0 KiB (0%)
Title: SDH
Language: English (US)
Default: No
Forced: No

Text #4
ID: 6
Format: UTF-8
Codec ID: S_TEXT/UTF8
Codec ID/Info: UTF-8 Plain Text
Duration: 1 h 25 min
Bit rate: 76 b/s
Frame rate: 0.194 FPS
Count of elements: 1001
Stream size: 48.1 KiB (0%)
Language: Arabic (001)
Default: No
Forced: No

Text #5
ID: 7
Format: UTF-8
Codec ID: S_TEXT/UTF8
Codec ID/Info: UTF-8 Plain Text
Duration: 1 h 25 min
Bit rate: 42 b/s
Frame rate: 0.193 FPS
Count of elements: 992
Stream size: 26.4 KiB (0%)
Language: Czech (CZ)
Default: No
Forced: No

Text #6
ID: 8
Format: UTF-8
Codec ID: S_TEXT/UTF8
Codec ID/Info: UTF-8 Plain Text
Duration: 1 h 25 min
Bit rate: 42 b/s
Frame rate: 0.193 FPS
Count of elements: 991
Stream size: 26.8 KiB (0%)
Language: Danish (DK)
Default: No
Forced: No

Text #7
ID: 9
Format: UTF-8
Codec ID: S_TEXT/UTF8
Codec ID/Info: UTF-8 Plain Text
Duration: 1 h 25 min
Bit rate: 43 b/s
Frame rate: 0.192 FPS
Count of elements: 987
Stream size: 27.1 KiB (0%)
Language: German (DE)
Default: No
Forced: No

Text #8
ID: 10
Format: UTF-8
Codec ID: S_TEXT/UTF8
Codec ID/Info: UTF-8 Plain Text
Duration: 1 h 25 min
Bit rate: 78 b/s
Frame rate: 0.193 FPS
Count of elements: 995
Stream size: 49.4 KiB (0%)
Language: Greek (GR)
Default: No
Forced: No

Text #9
ID: 11
Format: UTF-8
Codec ID: S_TEXT/UTF8
Codec ID/Info: UTF-8 Plain Text
Duration: 1 h 25 min
Bit rate: 45 b/s
Frame rate: 0.180 FPS
Count of elements: 928
Stream size: 28.7 KiB (0%)
Title: Spanish (Latin America)
Language: Spanish (Latin America)
Default: No
Forced: No

Text #10
ID: 12
Format: UTF-8
Codec ID: S_TEXT/UTF8
Codec ID/Info: UTF-8 Plain Text
Duration: 1 h 25 min
Bit rate: 44 b/s
Frame rate: 0.192 FPS
Count of elements: 989
Stream size: 28.0 KiB (0%)
Title: Spanish (Spain)
Language: Spanish (ES)
Default: No
Forced: No

Text #11
ID: 13
Format: UTF-8
Codec ID: S_TEXT/UTF8
Codec ID/Info: UTF-8 Plain Text
Duration: 1 h 25 min
Bit rate: 39 b/s
Frame rate: 0.192 FPS
Count of elements: 988
Stream size: 25.1 KiB (0%)
Language: Finnish (FI)
Default: No
Forced: No

Text #12
ID: 14
Format: UTF-8
Codec ID: S_TEXT/UTF8
Codec ID/Info: UTF-8 Plain Text
Duration: 1 h 25 min
Bit rate: 44 b/s
Frame rate: 0.192 FPS
Count of elements: 988
Stream size: 28.2 KiB (0%)
Language: fil (PH)
Default: No
Forced: No

Text #13
ID: 15
Format: UTF-8
Codec ID: S_TEXT/UTF8
Codec ID/Info: UTF-8 Plain Text
Duration: 1 h 25 min
Bit rate: 41 b/s
Frame rate: 0.193 FPS
Count of elements: 995
Stream size: 26.2 KiB (0%)
Language: French (FR)
Default: No
Forced: No

Text #14
ID: 16
Format: UTF-8
Codec ID: S_TEXT/UTF8
Codec ID/Info: UTF-8 Plain Text
Duration: 1 h 25 min
Bit rate: 109 b/s
Frame rate: 0.195 FPS
Count of elements: 1003
Stream size: 68.6 KiB (0%)
Language: Hindi (IN)
Default: No
Forced: No

Text #15
ID: 17
Format: UTF-8
Codec ID: S_TEXT/UTF8
Codec ID/Info: UTF-8 Plain Text
Duration: 1 h 25 min
Bit rate: 45 b/s
Frame rate: 0.193 FPS
Count of elements: 991
Stream size: 28.3 KiB (0%)
Language: Hungarian (HU)
Default: No
Forced: No

Text #16
ID: 18
Format: UTF-8
Codec ID: S_TEXT/UTF8
Codec ID/Info: UTF-8 Plain Text
Duration: 1 h 25 min
Bit rate: 41 b/s
Frame rate: 0.193 FPS
Count of elements: 994
Stream size: 26.2 KiB (0%)
Language: Indonesian (ID)
Default: No
Forced: No

Text #17
ID: 19
Format: UTF-8
Codec ID: S_TEXT/UTF8
Codec ID/Info: UTF-8 Plain Text
Duration: 1 h 25 min
Bit rate: 41 b/s
Frame rate: 0.194 FPS
Count of elements: 995
Stream size: 26.3 KiB (0%)
Language: Italian (IT)
Default: No
Forced: No

Text #18
ID: 20
Format: UTF-8
Codec ID: S_TEXT/UTF8
Codec ID/Info: UTF-8 Plain Text
Duration: 1 h 25 min
Bit rate: 38 b/s
Frame rate: 0.176 FPS
Count of elements: 908
Stream size: 24.1 KiB (0%)
Language: Japanese (JP)
Default: No
Forced: No

Text #19
ID: 21
Format: UTF-8
Codec ID: S_TEXT/UTF8
Codec ID/Info: UTF-8 Plain Text
Duration: 1 h 25 min
Bit rate: 52 b/s
Frame rate: 0.195 FPS
Count of elements: 1003
Stream size: 33.3 KiB (0%)
Language: Korean (KR)
Default: No
Forced: No

Text #20
ID: 22
Format: UTF-8
Codec ID: S_TEXT/UTF8
Codec ID/Info: UTF-8 Plain Text
Duration: 1 h 25 min
Bit rate: 46 b/s
Frame rate: 0.193 FPS
Count of elements: 992
Stream size: 29.5 KiB (0%)
Language: Malay (MY)
Default: No
Forced: No

Text #21
ID: 23
Format: UTF-8
Codec ID: S_TEXT/UTF8
Codec ID/Info: UTF-8 Plain Text
Duration: 1 h 25 min
Bit rate: 42 b/s
Frame rate: 0.193 FPS
Count of elements: 990
Stream size: 26.8 KiB (0%)
Language: Norwegian Bokmal (NO)
Default: No
Forced: No

Text #22
ID: 24
Format: UTF-8
Codec ID: S_TEXT/UTF8
Codec ID/Info: UTF-8 Plain Text
Duration: 1 h 25 min
Bit rate: 40 b/s
Frame rate: 0.192 FPS
Count of elements: 989
Stream size: 25.4 KiB (0%)
Language: Dutch (NL)
Default: No
Forced: No

Text #23
ID: 25
Format: UTF-8
Codec ID: S_TEXT/UTF8
Codec ID/Info: UTF-8 Plain Text
Duration: 1 h 25 min
Bit rate: 42 b/s
Frame rate: 0.192 FPS
Count of elements: 989
Stream size: 26.7 KiB (0%)
Language: Polish (PL)
Default: No
Forced: No

Text #24
ID: 26
Format: UTF-8
Codec ID: S_TEXT/UTF8
Codec ID/Info: UTF-8 Plain Text
Duration: 1 h 25 min
Bit rate: 41 b/s
Frame rate: 0.193 FPS
Count of elements: 995
Stream size: 26.1 KiB (0%)
Title: Portuguese (Brazil)
Language: Portuguese (BR)
Default: No
Forced: No

Text #25
ID: 27
Format: UTF-8
Codec ID: S_TEXT/UTF8
Codec ID/Info: UTF-8 Plain Text
Duration: 1 h 25 min
Bit rate: 44 b/s
Frame rate: 0.194 FPS
Count of elements: 998
Stream size: 28.2 KiB (0%)
Title: Portuguese (Portugal)
Language: Portuguese (PT)
Default: No
Forced: No

Text #26
ID: 28
Format: UTF-8
Codec ID: S_TEXT/UTF8
Codec ID/Info: UTF-8 Plain Text
Duration: 1 h 25 min
Bit rate: 48 b/s
Frame rate: 0.193 FPS
Count of elements: 991
Stream size: 30.2 KiB (0%)
Language: Romanian (RO)
Default: No
Forced: No

Text #27
ID: 29
Format: UTF-8
Codec ID: S_TEXT/UTF8
Codec ID/Info: UTF-8 Plain Text
Duration: 1 h 25 min
Bit rate: 42 b/s
Frame rate: 0.193 FPS
Count of elements: 991
Stream size: 27.0 KiB (0%)
Language: Swedish (SE)
Default: No
Forced: No

Text #28
ID: 30
Format: UTF-8
Codec ID: S_TEXT/UTF8
Codec ID/Info: UTF-8 Plain Text
Duration: 1 h 25 min
Bit rate: 117 b/s
Frame rate: 0.195 FPS
Count of elements: 1003
Stream size: 73.6 KiB (0%)
Language: Tamil (IN)
Default: No
Forced: No

Text #29
ID: 31
Format: UTF-8
Codec ID: S_TEXT/UTF8
Codec ID/Info: UTF-8 Plain Text
Duration: 1 h 25 min
Bit rate: 115 b/s
Frame rate: 0.195 FPS
Count of elements: 1003
Stream size: 72.4 KiB (0%)
Language: Telugu (IN)
Default: No
Forced: No

Text #30
ID: 32
Format: UTF-8
Codec ID: S_TEXT/UTF8
Codec ID/Info: UTF-8 Plain Text
Duration: 1 h 25 min
Bit rate: 115 b/s
Frame rate: 0.195 FPS
Count of elements: 1003
Stream size: 72.4 KiB (0%)
Language: Thai (TH)
Default: No
Forced: No

Text #31
ID: 33
Format: UTF-8
Codec ID: S_TEXT/UTF8
Codec ID/Info: UTF-8 Plain Text
Duration: 1 h 25 min
Bit rate: 42 b/s
Frame rate: 0.193 FPS
Count of elements: 993
Stream size: 26.9 KiB (0%)
Language: Turkish (TR)
Default: No
Forced: No

Text #32
ID: 34
Format: UTF-8
Codec ID: S_TEXT/UTF8
Codec ID/Info: UTF-8 Plain Text
Duration: 1 h 25 min
Bit rate: 52 b/s
Frame rate: 0.188 FPS
Count of elements: 967
Stream size: 33.2 KiB (0%)
Language: Vietnamese (VN)
Default: No
Forced: No

Text #33
ID: 35
Format: UTF-8
Codec ID: S_TEXT/UTF8
Codec ID/Info: UTF-8 Plain Text
Duration: 1 h 25 min
Bit rate: 42 b/s
Frame rate: 0.195 FPS
Count of elements: 1003
Stream size: 26.5 KiB (0%)
Title: Chinese (Simplified)
Language: Chinese (Simplified)
Default: No
Forced: No

Text #34
ID: 36
Format: UTF-8
Codec ID: S_TEXT/UTF8
Codec ID/Info: UTF-8 Plain Text
Duration: 1 h 25 min
Bit rate: 41 b/s
Frame rate: 0.195 FPS
Count of elements: 1002
Stream size: 25.8 KiB (0%)
Title: Chinese (Traditional)
Language: Chinese (Traditional)
Default: No
Forced: No

Menu
00:00:00.000: en:Amazon Original
00:00:07.000: en:Scene 2
00:01:21.000: en:Scene 3
00:02:26.000: en:Scene 4
00:04:17.000: en:Scene 5
00:06:45.000: en:Scene 6
00:10:58.000: en:Opening Credits
00:11:58.000: en:Title Sequence
00:12:09.000: en:Scene 9
00:16:38.000: en:Scene 10
00:20:54.000: en:Scene 11
00:24:00.000: en:Scene 12
00:29:15.000: en:Scene 13
00:31:52.000: en:Scene 14
00:36:19.000: en:Scene 15
00:37:27.000: en:Scene 16
00:40:54.000: en:Scene 17
00:42:18.000: en:Scene 18
00:45:09.000: en:Scene 19
00:49:12.000: en:Scene 20
00:52:43.000: en:Scene 21
00:55:15.000: en:Scene 22
00:59:15.000: en:Scene 23
01:03:21.000: en:Scene 24
01:06:06.000: en:Scene 25
01:07:30.000: en:Scene 26
01:09:23.000: en:Scene 27
01:10:32.000: en:Scene 28
01:14:48.000: en:Scene 29
01:16:01.000: en:Scene 30
01:20:10.000: en:Scene 31
01:24:57.000: en:Scene 32
01:25:09.000: en:End Credits
ssl  EZTV RSS EZTV Status | EZTV API | DMCA: [email protected]