eztvx.to | eztvstatus.org
Search title:  
TV Packs only
 

The Continental S01E01 Night 1 Brothers in Arms 1080p PCOK WEB-DL DDP5 1 x264-NTb EZTV

Episode Breakdown
The Continental: From the World of John Wick
The Continental: From the World of John Wick TV Show S01E01

Season: 1
Episode: 1
Air Date: 22 September, 2023
Download Links
     Torrent Download     Magnet Download
     Anonymous Download
Added 9 months ago by eztv (verified).
Tracker Statistics
Seeds: 1
Peers: 1
Stats generated @ 18:24 on 25th Jun 2024
Torrent Info
Torrent File: The.Continental.S01E01.Night.1.Brothers.in.Arms.1080p.PCOK.WEB-DL.DDP5.1.x264-NTb[eztv.re].mkv
Torrent Hash: B24A3977575E568FA3048C2005092D5CD6E78F66
Filesize: 4.82 GB
Released: 22nd Sep 2023

File Format: MKV (Matroska)
Resolution: 1920x1080 px
Aspect Ratio: 16:9
Alternate Releases S L
The Continental S01E01 720p WEB h264-ETHEL 15 3
The Continental S01E01 1080p WEB h264-ETHEL 23 1
The Continental S01E01 Brothers in Arms 1080p PCOK WEB-DL DDP5 1 H 264-AceMovies 2 2
The Continental S01E01 480p x264-mSD 5 2
The Continental S01E01 720p HEVC x265-MeGusta 3 1
The Continental 2023 S01E01 Night 1 Brothers in Arms 1080p AMZN WEB-DL DDP5 1 H 264-NTb 6 1
The Continental S01E01 1080p HEVC x265-MeGusta 44 10

The Continental: From the World of John Wick S01E01 - Brothers in Arms

Summary:

Winston Scott gets roped into a vast conspiracy triggered by his brother's raid on the Continental.



The Continental S01E01 Night 1 Brothers in Arms 1080p PCOK WEB-DL DDP5 1 x264-NTb EZTV
The Continental: From the World of John Wick S1E1 Screenshot


General
Unique ID: 154294439675069580738459677390907985304 (0x74140735A46E3B6EA2AD16CF9A214D98)
Complete name: The.Continental.S01E01.Night.1.Brothers.in.Arms.1080p.PCOK.WEB-DL.DDP5.1.x264-NTb.mkv
Format: Matroska
Format version: Version 4
File size: 4.82 GiB
Duration: 1 h 26 min
Overall bit rate: 7 993 kb/s
Frame rate: 23.976 FPS
Writing application: mkvmerge v78.0 ('Running') 64-bit
Writing library: libebml v1.4.4 + libmatroska v1.7.1

Video
ID: 1
Format: AVC
Format/Info: Advanced Video Codec
Format profile: High@L4
Format settings: CABAC / 3 Ref Frames
Format settings, CABAC: Yes
Format settings, Reference frames: 3 frames
Codec ID: V_MPEG4/ISO/AVC
Duration: 1 h 26 min
Bit rate: 7 814 kb/s
Width: 1 920 pixels
Height: 1 080 pixels
Display aspect ratio: 16:9
Frame rate mode: Constant
Frame rate: 23.976 (24000/1001) FPS
Color space: YUV
Chroma subsampling: 4:2:0
Bit depth: 8 bits
Scan type: Progressive
Bits/(Pixel*Frame): 0.157
Stream size: 4.71 GiB (98%)
Writing library: x264 core 164 r3095 baee400
Encoding settings: cabac=1 / ref=3 / deblock=1:0:0 / analyse=0x3:0x113 / me=umh / subme=7 / psy=1 / psy_rd=0.00:0.00 / mixed_ref=1 / me_range=16 / chroma_me=1 / trellis=1 / 8x8dct=1 / cqm=0 / deadzone=21,11 / fast_pskip=1 / chroma_qp_offset=0 / threads=34 / lookahead_threads=5 / sliced_threads=0 / nr=0 / decimate=1 / interlaced=0 / bluray_compat=0 / stitchable=1 / constrained_intra=0 / bframes=2 / b_pyramid=0 / b_adapt=1 / b_bias=0 / direct=1 / weightb=1 / open_gop=0 / weightp=2 / keyint=48 / keyint_min=4 / scenecut=0 / intra_refresh=0 / rc_lookahead=48 / rc=2pass / mbtree=1 / bitrate=7814 / ratetol=1.0 / qcomp=0.60 / qpmin=10 / qpmax=51 / qpstep=4 / cplxblur=20.0 / qblur=0.5 / vbv_maxrate=11729 / vbv_bufsize=11729 / nal_hrd=none / filler=0 / ip_ratio=1.41 / aq=1:1.00
Default: Yes
Forced: No
Color range: Limited
Color primaries: BT.709
Transfer characteristics: BT.709
Matrix coefficients: BT.709

Audio
ID: 2
Format: E-AC-3
Format/Info: Enhanced AC-3
Commercial name: Dolby Digital Plus
Codec ID: A_EAC3
Duration: 1 h 26 min
Bit rate mode: Constant
Bit rate: 192 kb/s
Channel(s): 6 channels
Channel layout: L R C LFE Ls Rs
Sampling rate: 48.0 kHz
Frame rate: 31.250 FPS (1536 SPF)
Compression mode: Lossy
Stream size: 119 MiB (2%)
Language: English
Service kind: Complete Main
Default: Yes
Forced: No

Text #1
ID: 3
Format: UTF-8
Codec ID: S_TEXT/UTF8
Codec ID/Info: UTF-8 Plain Text
Duration: 1 h 25 min
Bit rate: 55 b/s
Frame rate: 0.229 FPS
Count of elements: 1170
Stream size: 34.4 KiB (0%)
Language: English
Default: No
Forced: No

Text #2
ID: 4
Format: UTF-8
Codec ID: S_TEXT/UTF8
Codec ID/Info: UTF-8 Plain Text
Duration: 1 h 25 min
Bit rate: 62 b/s
Frame rate: 0.278 FPS
Count of elements: 1430
Stream size: 39.5 KiB (0%)
Title: SDH
Language: English
Default: No
Forced: No

Text #3
ID: 5
Format: UTF-8
Codec ID: S_TEXT/UTF8
Codec ID/Info: UTF-8 Plain Text
Duration: 1 h 25 min
Bit rate: 56 b/s
Frame rate: 0.212 FPS
Count of elements: 1084
Stream size: 34.9 KiB (0%)
Language: Spanish
Default: No
Forced: No

Menu
00:00:00.000: en:Chapter 1
01:25:13.650: en:Credits

ssl  EZTV RSS EZTV Status | EZTV API | DMCA: [email protected]