eztvx.to | eztvstatus.org
Search title:  
TV Packs only
 

The Walking Dead Daryl Dixon S01E02 1080p AMZN WEB-DL DDP5 1 H 264-NTb EZTV

Episode Breakdown
The Walking Dead: Daryl Dixon
The Walking Dead: Daryl Dixon TV Show S01E02

Season: 1
Episode: 2
Air Date: 17 September, 2023
Download Links
     Torrent Download     Magnet Download
     Anonymous Download
Added 9 months ago by eztv (verified).
Tracker Statistics
Seeds: 10
Peers: 3
Stats generated @ 21:03 on 13th Jul 2024
Torrent Info
Torrent File: The.Walking.Dead.Daryl.Dixon.S01E02.1080p.AMZN.WEB-DL.DDP5.1.H.264-NTb[eztv.re].mkv
Torrent Hash: DE9B715AA089E78D3AF307BE2930F28157AB5AFB
Filesize: 4.14 GB
Released: 18th Sep 2023

File Format: MKV (Matroska)
Resolution: 1920x1080 px
Aspect Ratio: 16:9
Alternate Releases S L
The Walking Dead Daryl Dixon S01E02 720p WEB h264-EDITH 19 5
The Walking Dead Daryl Dixon S01E02 1080p WEB h264-EDITH 24 2
The Walking Dead Daryl Dixon S01E02 720p HEVC x265-MeGusta 15 5
The Walking Dead Daryl Dixon S01E02 480p x264-mSD 15 3
The Walking Dead Daryl Dixon S01E02 XviD-AFG 13 1
The Walking Dead Daryl Dixon S01E02 1080p HEVC x265-MeGusta 21 5
The Walking Dead Daryl Dixon S01E02 720p x264-FENiX 11 0

The Walking Dead: Daryl Dixon S01E02 - Alouette

Summary:

Daryl, Isabelle, Laurent and Sylvie face trouble on the road; Isabelle remembers the day the hungry ones appeared; Laurent struggles to fit in.



The Walking Dead Daryl Dixon S01E02 1080p AMZN WEB-DL DDP5 1 H 264-NTb EZTV
The Walking Dead: Daryl Dixon S1E2 Screenshot


General
Unique ID: 337136929897546382426366359494640343672 (0xFDA235FB3D1390FD84316EE83B491A78)
Complete name: The.Walking.Dead.Daryl.Dixon.S01E02.1080p.AMZN.WEB-DL.DDP5.1.H.264-NTb.mkv
Format: Matroska
Format version: Version 4
File size: 4.14 GiB
Duration: 1 h 0 min
Overall bit rate: 9 843 kb/s
Frame rate: 24.000 FPS
Writing application: mkvmerge v78.0 ('Running') 64-bit
Writing library: libebml v1.4.4 + libmatroska v1.7.1

Video
ID: 1
Format: AVC
Format/Info: Advanced Video Codec
Format profile: High@L4
Format settings: CABAC / 4 Ref Frames
Format settings, CABAC: Yes
Format settings, Reference frames: 4 frames
Codec ID: V_MPEG4/ISO/AVC
Duration: 1 h 0 min
Bit rate mode: Constant
Bit rate: 9 200 kb/s
Nominal bit rate: 10 000 kb/s
Width: 1 920 pixels
Height: 960 pixels
Display aspect ratio: 2.000
Frame rate mode: Constant
Frame rate: 24.000 FPS
Color space: YUV
Chroma subsampling: 4:2:0
Bit depth: 8 bits
Scan type: Progressive
Bits/(Pixel*Frame): 0.208
Stream size: 3.87 GiB (93%)
Default: Yes
Forced: No
Color range: Limited
Color primaries: BT.709
Transfer characteristics: BT.709
Matrix coefficients: BT.709

Audio
ID: 2
Format: E-AC-3
Format/Info: Enhanced AC-3
Commercial name: Dolby Digital Plus
Codec ID: A_EAC3
Duration: 1 h 0 min
Bit rate mode: Constant
Bit rate: 640 kb/s
Channel(s): 6 channels
Channel layout: L R C LFE Ls Rs
Sampling rate: 48.0 kHz
Frame rate: 31.250 FPS (1536 SPF)
Compression mode: Lossy
Stream size: 275 MiB (7%)
Language: English
Service kind: Complete Main
Default: Yes
Forced: No

Text #1
ID: 3
Format: UTF-8
Codec ID: S_TEXT/UTF8
Codec ID/Info: UTF-8 Plain Text
Duration: 58 min 12 s
Bit rate: 29 b/s
Frame rate: 0.148 FPS
Count of elements: 516
Stream size: 12.5 KiB (0%)
Language: English
Default: No
Forced: No

Text #2
ID: 4
Format: UTF-8
Codec ID: S_TEXT/UTF8
Codec ID/Info: UTF-8 Plain Text
Duration: 1 h 0 min
Bit rate: 35 b/s
Frame rate: 0.247 FPS
Count of elements: 891
Stream size: 15.5 KiB (0%)
Title: SDH
Language: English
Default: No
Forced: No

ssl  EZTV RSS EZTV Status | EZTV API | DMCA: [email protected]