eztvx.to | eztvstatus.org
Search title:  
TV Packs only
 

The Walking Dead Daryl Dixon S01E02 720p x264-FENiX EZTV

Episode Breakdown
The Walking Dead: Daryl Dixon
The Walking Dead: Daryl Dixon TV Show S01E02

Season: 1
Episode: 2
Air Date: 17 September, 2023
Download Links
     Torrent Download     Magnet Download
     Anonymous Download
Added 9 months ago by eztv (verified).
Tracker Statistics
Seeds: 13
Peers: 6
Stats generated @ 13:55 on 23rd Jun 2024
Torrent Info
Torrent File: The.Walking.Dead.Daryl.Dixon.S01E02.720p.x264-FENiX[eztv.re].mkv
Torrent Hash: 6E9A8B87DA0E2B84C2D2D9BBE448026F8B77B52B
Filesize: 783 MB
Released: 17th Sep 2023

File Format: MKV (Matroska)
Resolution: 1280x720 px
Aspect Ratio: 16:9
Alternate Releases S L
The Walking Dead Daryl Dixon S01E02 720p WEB h264-EDITH 23 5
The Walking Dead Daryl Dixon S01E02 1080p WEB h264-EDITH 31 7
The Walking Dead Daryl Dixon S01E02 720p HEVC x265-MeGusta 18 8
The Walking Dead Daryl Dixon S01E02 480p x264-mSD 14 4
The Walking Dead Daryl Dixon S01E02 XviD-AFG 14 5
The Walking Dead Daryl Dixon S01E02 1080p HEVC x265-MeGusta 25 5
The Walking Dead Daryl Dixon S01E02 720p x265-T0PAZ 9 6

The Walking Dead: Daryl Dixon S01E02 - Alouette

Summary:

Daryl, Isabelle, Laurent and Sylvie face trouble on the road; Isabelle remembers the day the hungry ones appeared; Laurent struggles to fit in.



The Walking Dead Daryl Dixon S01E02 720p x264-FENiX EZTV
The Walking Dead: Daryl Dixon S1E2 Screenshot


General
Unique ID: 267555472530041332082392092968653146683 (0xC9494F441C325BBB7D671D0DB207CA3B)
Complete name: The.Walking.Dead.Daryl.Dixon.S01E02.720p.x264-FENiX.mkv
Format: Matroska
Format version: Version 4
File size: 783 MiB
Duration: 1 h 1 min
Overall bit rate: 1 790 kb/s
Frame rate: 24.000 FPS
Movie name: The.Walking.Dead.Daryl.Dixon.S01E02
Writing application: Lavf59.16.100
Writing library: Lavf59.16.100
Comment: FENiX-Sun-17-Sep-2023,08:22:43,720p,23,fast,9346229,0,-1
ErrorDetectionType: Per level 1

Video
ID: 1
Format: AVC
Format/Info: Advanced Video Codec
Format profile: [email protected]
Format settings: CABAC / 4 Ref Frames
Format settings, CABAC: Yes
Format settings, Reference frames: 4 frames
Codec ID: V_MPEG4/ISO/AVC
Duration: 1 h 1 min
Bit rate: 1 306 kb/s
Width: 1 280 pixels
Height: 640 pixels
Display aspect ratio: 2.000
Frame rate mode: Constant
Frame rate: 24.000 FPS
Color space: YUV
Chroma subsampling: 4:2:0
Bit depth: 8 bits
Scan type: Progressive
Bits/(Pixel*Frame): 0.066
Stream size: 571 MiB (73%)
Writing library: x264 core 163
Encoding settings: cabac=1 / ref=2 / deblock=1:0:0 / analyse=0x3:0x113 / me=hex / subme=6 / psy=1 / psy_rd=1.00:0.00 / mixed_ref=1 / me_range=16 / chroma_me=1 / trellis=1 / 8x8dct=1 / cqm=0 / deadzone=21,11 / fast_pskip=1 / chroma_qp_offset=-2 / threads=20 / lookahead_threads=3 / sliced_threads=0 / nr=0 / decimate=1 / interlaced=0 / bluray_compat=0 / constrained_intra=0 / bframes=3 / b_pyramid=2 / b_adapt=1 / b_bias=0 / direct=1 / weightb=1 / open_gop=0 / weightp=1 / keyint=250 / keyint_min=24 / scenecut=40 / intra_refresh=0 / rc_lookahead=30 / rc=crf / mbtree=1 / crf=23.0 / qcomp=0.60 / qpmin=0 / qpmax=69 / qpstep=4 / ip_ratio=1.40 / aq=1:1.00
Default: Yes
Forced: No
Color range: Limited
Color primaries: BT.709
Transfer characteristics: BT.709
Matrix coefficients: BT.709

Audio
ID: 2
Format: AC-3
Format/Info: Audio Coding 3
Commercial name: Dolby Digital
Codec ID: A_AC3
Duration: 1 h 1 min
Bit rate mode: Constant
Bit rate: 448 kb/s
Channel(s): 6 channels
Channel layout: L R C LFE Ls Rs
Sampling rate: 48.0 kHz
Frame rate: 31.250 FPS (1536 SPF)
Bit depth: 32 bits
Compression mode: Lossy
Stream size: 196 MiB (25%)
Writing library: Lavc59.18.100 ac3
Language: English
Service kind: Complete Main
Default: Yes
Forced: No

Text
ID: 3
Format: UTF-8
Codec ID: S_TEXT/UTF8
Codec ID/Info: UTF-8 Plain Text
Duration: 1 h 1 min
Language: English
Default: No
Forced: No

ssl  EZTV RSS EZTV Status | EZTV API | DMCA: [email protected]