eztvx.to | eztvstatus.org
Search title:  
TV Packs only
 

Batman The Animated Series S02E01 Eternal Youth 1080p AMZN WEB-DL DD 2 0 H 264-playWEB EZTV

Episode Breakdown
Batman: The Animated Series
Batman: The Animated Series TV Show S02E01

Season: 2
Episode: 1
Air Date: 13 September, 1993
Download Links
     Torrent Download     Magnet Download
     Anonymous Download
Added 12 days ago by eztv (verified).
Tracker Statistics
Seeds: 67
Peers: 7
Stats generated @ 04:02 on 23rd Jul 2024
Torrent Info
Torrent File: Batman The Animated Series S02E01 Eternal Youth 1080p AMZN WEB-DL DD 2 0 H 264-playWEB[EZTVx.to].mkv
Torrent Hash: ED06BFE691BA2967F32A3541694D1E0E594D3DC0
Filesize: 1.44 GB
Released: 10th Jul 2024

File Format: MKV (Matroska)
Resolution: 1920x1080 px
Aspect Ratio: 16:9

Batman: The Animated Series S02E01 - Shadow of the Bat

Summary:

When Commissioner Gordon is framed for taking bribes from Rupert Thorne, his daughter Barbara pleads with Batman to show up at a rally being put on in the commissioner's behalf. But when Batman disappears after finding the person behind the frame-up, Barbara takes the law into her own hands as Batgirl.



Batman The Animated Series S02E01 Eternal Youth 1080p AMZN WEB-DL DD 2 0 H 264-playWEB EZTV
Batman: The Animated Series S2E1 Screenshot


General
Unique ID: 25367043521177277031106971310171456968 (0x131583CEA36ABB691173DF31612985C8)
Complete name: Batman The Animated Series S02E01 Eternal Youth 1080p AMZN WEB-DL DD 2 0 H 264-playWEB.mkv
Format: Matroska
Format version: Version 4
File size: 1.44 GiB
Duration: 22 min 17 s
Overall bit rate: 9 267 kb/s
Frame rate: 23.976 FPS
Writing application: mkvmerge v85.0 ('Shame For You') 64-bit
Writing library: libebml v1.4.5 + libmatroska v1.7.1

Video
ID: 1
Format: AVC
Format/Info: Advanced Video Codec
Format profile: High@L4
Format settings: CABAC / 4 Ref Frames
Format settings, CABAC: Yes
Format settings, Reference frames: 4 frames
Codec ID: V_MPEG4/ISO/AVC
Duration: 22 min 17 s
Bit rate mode: Constant
Bit rate: 8 816 kb/s
Nominal bit rate: 10 000 kb/s
Width: 1 440 pixels
Height: 1 080 pixels
Display aspect ratio: 4:3
Frame rate mode: Constant
Frame rate: 23.976 (24000/1001) FPS
Color space: YUV
Chroma subsampling: 4:2:0
Bit depth: 8 bits
Scan type: Progressive
Bits/(Pixel*Frame): 0.236
Stream size: 1.37 GiB (95%)
Default: Yes
Forced: No
Color range: Limited
Color primaries: BT.709
Transfer characteristics: BT.709
Matrix coefficients: BT.709

Audio #1
ID: 2
Format: E-AC-3
Format/Info: Enhanced AC-3
Commercial name: Dolby Digital Plus
Codec ID: A_EAC3
Duration: 22 min 17 s
Bit rate mode: Constant
Bit rate: 224 kb/s
Channel(s): 2 channels
Channel layout: L R
Sampling rate: 48.0 kHz
Frame rate: 31.250 FPS (1536 SPF)
Compression mode: Lossy
Stream size: 35.7 MiB (2%)
Language: English
Service kind: Complete Main
Default: Yes
Forced: No

Audio #2
ID: 3
Format: E-AC-3
Format/Info: Enhanced AC-3
Commercial name: Dolby Digital Plus
Codec ID: A_EAC3
Duration: 22 min 17 s
Bit rate mode: Constant
Bit rate: 224 kb/s
Channel(s): 2 channels
Channel layout: L R
Sampling rate: 48.0 kHz
Frame rate: 31.250 FPS (1536 SPF)
Compression mode: Lossy
Stream size: 35.7 MiB (2%)
Language: Romanian
Service kind: Complete Main
Default: No
Forced: No

Text #1
ID: 4
Format: UTF-8
Codec ID: S_TEXT/UTF8
Codec ID/Info: UTF-8 Plain Text
Duration: 19 min 34 s
Bit rate: 50 b/s
Frame rate: 0.221 FPS
Count of elements: 260
Stream size: 7.28 KiB (0%)
Language: English
Default: No
Forced: No

Text #2
ID: 5
Format: UTF-8
Codec ID: S_TEXT/UTF8
Codec ID/Info: UTF-8 Plain Text
Duration: 21 min 48 s
Bit rate: 54 b/s
Frame rate: 0.260 FPS
Count of elements: 340
Stream size: 8.70 KiB (0%)
Title: SDH
Language: English
Default: No
Forced: No

Text #3
ID: 6
Format: UTF-8
Codec ID: S_TEXT/UTF8
Codec ID/Info: UTF-8 Plain Text
Duration: 21 min 33 s
Bit rate: 49 b/s
Frame rate: 0.154 FPS
Count of elements: 199
Stream size: 7.78 KiB (0%)
Title: Latin American
Language: Spanish
Default: No
Forced: No

Text #4
ID: 7
Format: UTF-8
Codec ID: S_TEXT/UTF8
Codec ID/Info: UTF-8 Plain Text
Duration: 19 min 34 s
Bit rate: 52 b/s
Frame rate: 0.165 FPS
Count of elements: 194
Stream size: 7.49 KiB (0%)
Title: European
Language: French
Default: No
Forced: No

Text #5
ID: 8
Format: UTF-8
Codec ID: S_TEXT/UTF8
Codec ID/Info: UTF-8 Plain Text
Duration: 21 min 33 s
Bit rate: 48 b/s
Frame rate: 0.145 FPS
Count of elements: 187
Stream size: 7.68 KiB (0%)
Title: Brazilian
Language: Portuguese
Default: No
Forced: No
ssl  EZTV RSS EZTV Status | EZTV API | DMCA: [email protected]