eztvx.to | eztvstatus.org
Search title:  
TV Packs only
 

Grace S01E03 Grace 03 720p HULU WEB-DL DDP5 1 H 264-NTb EZTV

Episode Breakdown
Grace
Grace TV Show S01E03

Season: 1
Episode: 3
Download Links
     Torrent Download     Magnet Download
     Anonymous Download
Added 12 days ago by eztv (verified).
Tracker Statistics
Seeds: 4
Peers: 1
Stats generated @ 04:24 on 23rd Jul 2024
Torrent Info
Torrent File: Grace S01E03 Grace 03 720p HULU WEB-DL DDP5 1 H 264-NTb[EZTVx.to].mkv
Torrent Hash: 6AF4966E939978E9A5C71B427933E587F5D81D0A
Filesize: 737 MB
Released: 10th Jul 2024

File Format: MKV (Matroska)
Resolution: 1280x720 px
Aspect Ratio: 16:9

Episode Description
Grace S01E03 Grace 03 720p HULU WEB-DL DDP5 1 H 264-NTb EZTV
Grace S1E3 Screenshot


General
Unique ID: 171111562103026609873213031720791331749 (0x80BAE35C63D6FCCF76FAB37F4C4C53A5)
Complete name: Grace S01E03 Grace 03 720p HULU WEB-DL DDP5 1 H 264-NTb.mkv
Format: Matroska
Format version: Version 4
File size: 737 MiB
Duration: 46 min 43 s
Overall bit rate: 2 206 kb/s
Frame rate: 23.976 FPS
Encoded date: 2020-11-21 19:44:59 UTC
Writing application: mkvmerge v38.0.0 ('The Silent Type') 64-bit
Writing library: libebml v1.3.9 + libmatroska v1.5.2

Video
ID: 1
Format: AVC
Format/Info: Advanced Video Codec
Format profile: [email protected]
Format settings: CABAC / 5 Ref Frames
Format settings, CABAC: Yes
Format settings, Reference frames: 5 frames
Codec ID: V_MPEG4/ISO/AVC
Duration: 46 min 43 s
Bit rate: 1 949 kb/s
Width: 1 280 pixels
Height: 720 pixels
Display aspect ratio: 16:9
Frame rate mode: Constant
Frame rate: 23.976 (24000/1001) FPS
Color space: YUV
Chroma subsampling: 4:2:0
Bit depth: 8 bits
Scan type: Progressive
Bits/(Pixel*Frame): 0.088
Stream size: 651 MiB (88%)
Default: Yes
Forced: No

Audio
ID: 2
Format: E-AC-3
Format/Info: Enhanced AC-3
Commercial name: Dolby Digital Plus
Codec ID: A_EAC3
Duration: 46 min 43 s
Bit rate mode: Constant
Bit rate: 256 kb/s
Channel(s): 6 channels
Channel layout: L R C LFE Ls Rs
Sampling rate: 48.0 kHz
Frame rate: 31.250 FPS (1536 SPF)
Compression mode: Lossy
Stream size: 85.6 MiB (12%)
Language: English
Service kind: Complete Main
Default: Yes
Forced: No

Text
ID: 3
Format: UTF-8
Codec ID: S_TEXT/UTF8
Codec ID/Info: UTF-8 Plain Text
Duration: 46 min 21 s
Bit rate: 35 b/s
Frame rate: 0.184 FPS
Count of elements: 513
Stream size: 12.1 KiB (0%)
Language: English
Default: No
Forced: No

ssl  EZTV RSS EZTV Status | EZTV API | DMCA: [email protected]