eztvx.to | eztvstatus.org
Search title:  
TV Packs only
 

Grace 2021 S02E04 Dead Tomorrow 1080p AMZN WEB-DL DDP2 0 H 264-NTb EZTV

Episode Breakdown
Grace
Grace TV Show S02E04

Season: 2
Episode: 4
Download Links
     Torrent Download     Magnet Download
     Anonymous Download
Added 12 days ago by eztv (verified).
Tracker Statistics
Seeds: 1
Peers: 4
Stats generated @ 04:11 on 23rd Jul 2024
Torrent Info
Torrent File: Grace 2021 S02E04 Dead Tomorrow 1080p AMZN WEB-DL DDP2 0 H 264-NTb[EZTVx.to].mkv
Torrent Hash: 07B43E70037E82B418E557079C398842ABCDA9B9
Filesize: 3.89 GB
Released: 10th Jul 2024

File Format: MKV (Matroska)
Resolution: 1920x1080 px
Aspect Ratio: 16:9
Alternate Releases S L
Grace 2021 S02E04 720p AMZN WEB-DL DDP2 0 H 264-NTb 5 2

Episode Description
Grace 2021 S02E04 Dead Tomorrow 1080p AMZN WEB-DL DDP2 0 H 264-NTb EZTV
Grace S2E4 Screenshot


General
Unique ID: 6646246983466213630610594602827244893 (0x500054696524B845863FF71F881E55D)
Complete name: Grace 2021 S02E04 Dead Tomorrow 1080p AMZN WEB-DL DDP2 0 H 264-NTb.mkv
Format: Matroska
Format version: Version 4
File size: 3.89 GiB
Duration: 1 h 29 min
Overall bit rate mode: Constant
Overall bit rate: 6 222 kb/s
Frame rate: 25.000 FPS
Writing application: mkvmerge v67.0.0 ('Under Stars') 64-bit
Writing library: libebml v1.4.2 + libmatroska v1.6.4

Video
ID: 1
Format: AVC
Format/Info: Advanced Video Codec
Format profile: High@L4
Format settings: CABAC / 4 Ref Frames
Format settings, CABAC: Yes
Format settings, Reference frames: 4 frames
Codec ID: V_MPEG4/ISO/AVC
Duration: 1 h 29 min
Bit rate mode: Constant
Bit rate: 5 996 kb/s
Nominal bit rate: 10 000 kb/s
Width: 1 920 pixels
Height: 1 080 pixels
Display aspect ratio: 16:9
Frame rate mode: Constant
Frame rate: 25.000 FPS
Color space: YUV
Chroma subsampling: 4:2:0
Bit depth: 8 bits
Scan type: Progressive
Bits/(Pixel*Frame): 0.116
Stream size: 3.75 GiB (96%)
Language: English (GB)
Default: Yes
Forced: No
Color range: Limited
Color primaries: BT.709
Transfer characteristics: BT.709
Matrix coefficients: BT.709

Audio
ID: 2
Format: E-AC-3
Format/Info: Enhanced AC-3
Commercial name: Dolby Digital Plus
Codec ID: A_EAC3
Duration: 1 h 29 min
Bit rate mode: Constant
Bit rate: 224 kb/s
Channel(s): 2 channels
Channel layout: L R
Sampling rate: 48.0 kHz
Frame rate: 31.250 FPS (1536 SPF)
Compression mode: Lossy
Stream size: 143 MiB (4%)
Language: English
Service kind: Complete Main
Default: Yes
Forced: No
ssl  EZTV RSS EZTV Status | EZTV API | DMCA: [email protected]