eztvx.to | eztvstatus.org
Search title:  
TV Packs only
 

Below Deck Mediterranean S09E02 Sneak Sip and Sink 1080p AMZN WEB-DL DDP2 0 H 264-FLUX EZTV

Episode Breakdown
Below Deck Mediterranean
Below Deck Mediterranean TV Show S09E02

Season: 9
Episode: 2
Air Date: 10 June, 2024
Download Links
     Torrent Download     Magnet Download
     Anonymous Download
Added 4 days ago by eztv (verified).
Tracker Statistics
Seeds: 329
Peers: 71
Stats generated @ 04:51 on 16th Jun 2024
Torrent Info
Torrent File: Below Deck Mediterranean S09E02 Sneak Sip and Sink 1080p AMZN WEB-DL DDP2 0 H 264-FLUX[EZTVx.to].mkv
Torrent Hash: 17953906038CFB6DC5429D8F508A5C707DEAC6B2
Filesize: 2.88 GB
Released: 11th Jun 2024

File Format: MKV (Matroska)
Resolution: 1920x1080 px
Aspect Ratio: 16:9
Alternate Releases S L
Below Deck Mediterranean S09E02 1080p WEB h264-EDITH 104 34
Below Deck Mediterranean S09E02 XviD-AFG 84 30
Below Deck Mediterranean S09E02 1080p HEVC x265-MeGusta 99 29

Below Deck Mediterranean S09E02 - Sneak, Sip, and Sink

Summary:

The charter guests remain without provisions, but two deckhands come to the rescue by acquiring a surprise from a nearby boat; Aesha has difficulty maintaining the interior's smooth operation.



Below Deck Mediterranean S09E02 Sneak Sip and Sink 1080p AMZN WEB-DL DDP2 0 H 264-FLUX EZTV
Below Deck Mediterranean S9E2 Screenshot


General
Unique ID: 242255019199124688804633819423695378758 (0xB6409E9BD60970A0208F3E53792B1946)
Complete name: Below Deck Mediterranean S09E02 Sneak Sip and Sink 1080p AMZN WEB-DL DDP2 0 H 264-FLUX.mkv
Format: Matroska
Format version: Version 4
File size: 2.88 GiB
Duration: 42 min 34 s
Overall bit rate: 9 698 kb/s
Frame rate: 23.976 FPS
Writing application: mkvmerge v83.0 ('Circle Of Friends') 64-bit
Writing library: libebml v1.4.5 + libmatroska v1.7.1

Video
ID: 1
Format: AVC
Format/Info: Advanced Video Codec
Format profile: High@L4
Format settings: CABAC / 4 Ref Frames
Format settings, CABAC: Yes
Format settings, Reference frames: 4 frames
Codec ID: V_MPEG4/ISO/AVC
Duration: 42 min 34 s
Bit rate mode: Constant
Bit rate: 9 472 kb/s
Nominal bit rate: 10 000 kb/s
Width: 1 920 pixels
Height: 1 080 pixels
Display aspect ratio: 16:9
Frame rate mode: Constant
Frame rate: 23.976 (24000/1001) FPS
Color space: YUV
Chroma subsampling: 4:2:0
Bit depth: 8 bits
Scan type: Progressive
Bits/(Pixel*Frame): 0.191
Stream size: 2.82 GiB (98%)
Language: English (US)
Default: Yes
Forced: No
Color range: Limited
Color primaries: BT.709
Transfer characteristics: BT.709
Matrix coefficients: BT.709

Audio
ID: 2
Format: E-AC-3
Format/Info: Enhanced AC-3
Commercial name: Dolby Digital Plus
Codec ID: A_EAC3
Duration: 42 min 34 s
Bit rate mode: Constant
Bit rate: 224 kb/s
Channel(s): 2 channels
Channel layout: L R
Sampling rate: 48.0 kHz
Frame rate: 31.250 FPS (1536 SPF)
Compression mode: Lossy
Stream size: 68.2 MiB (2%)
Language: English
Service kind: Complete Main
Default: Yes
Forced: No

Text #1
ID: 3
Format: UTF-8
Codec ID: S_TEXT/UTF8
Codec ID/Info: UTF-8 Plain Text
Duration: 42 min 20 s
Bit rate: 107 b/s
Frame rate: 0.414 FPS
Count of elements: 1052
Stream size: 33.3 KiB (0%)
Language: English (US)
Default: No
Forced: No

Text #2
ID: 4
Format: UTF-8
Codec ID: S_TEXT/UTF8
Codec ID/Info: UTF-8 Plain Text
Duration: 42 min 20 s
Bit rate: 108 b/s
Frame rate: 0.420 FPS
Count of elements: 1067
Stream size: 33.5 KiB (0%)
Title: SDH
Language: English (US)
Default: No
Forced: No

Menu
00:00:00.000: en:Scene 1
00:42:29.000: en:Outro
ssl  EZTV RSS EZTV Status | EZTV API | DMCA: [email protected]