eztvx.to | eztvstatus.org
Search title:  
TV Packs only
 

On Thin Ice Putin v Greenpeace S01E01 1080p HDTV x264-NGP EZTV

Episode Breakdown
Football Social Daily Liverpool v Man United blockbuster, Wolves v West Brom derby, Lampard on thin ice and Rooney's reverence massive
Football Social Daily Liverpool v Man United blockbuster, Wolves v West Brom derby, Lampard on thin ice and Rooney's reverence massive TV Show S01E01

Season: 1
Episode: 1
Download Links
     Torrent Download     Magnet Download
     Anonymous Download
Added 1 month ago by eztv (verified).
Tracker Statistics
Seeds: 4
Peers: 1
Stats generated @ 18:29 on 13th Jul 2024
Torrent Info
Torrent File: On Thin Ice Putin v Greenpeace S01E01 1080p HDTV x264-NGP[EZTVx.to].mp4
Torrent Hash: 5F7921391D458CB873D2A9776511DE74061B4619
Filesize: 1.33 GB
Released: 9th Jun 2024

File Format: MP4 (MPEG-4)
Resolution: 1920x1080 px
Aspect Ratio: 16:9
Alternate Releases S L
On Thin Ice Putin v Greenpeace S01E01 XviD-AFG 3 1
On Thin Ice Putin v Greenpeace S01E01 1080p iP WEB-DL AAC2 0 HFR H 264-NGP 5 1
On Thin Ice Putin v Greenpeace S01E01 1080p WEBRip x264-CBFM 1 1

Episode Description
On Thin Ice Putin v Greenpeace S01E01 1080p HDTV x264-NGP EZTV
Football Social Daily Liverpool v Man United blockbuster, Wolves v West Brom derby, Lampard on thin ice and Rooney's reverence massive S1E1 Screenshot


General
Complete name: On Thin Ice Putin v Greenpeace S01E01 1080p HDTV x264-NGP.mp4
Format: MPEG-4
Format profile: Base Media
Codec ID: isom (isom/iso2/avc1/mp41)
File size: 1.33 GiB
Duration: 29 min 26 s
Overall bit rate mode: Variable
Overall bit rate: 6 487 kb/s
Frame rate: 50.000 FPS
Writing application: Lavf59.20.101

Video
ID: 2
Format: AVC
Format/Info: Advanced Video Codec
Format profile: [email protected]
Format settings: CABAC / 4 Ref Frames
Format settings, CABAC: Yes
Format settings, Reference frames: 4 frames
Codec ID: avc1
Codec ID/Info: Advanced Video Coding
Duration: 29 min 26 s
Bit rate mode: Variable
Bit rate: 6 349 kb/s
Maximum bit rate: 12.0 Mb/s
Width: 1 920 pixels
Height: 1 080 pixels
Display aspect ratio: 16:9
Frame rate mode: Variable
Frame rate: 50.000 FPS
Minimum frame rate: 25.000 FPS
Maximum frame rate: 90 000.000 FPS
Color space: YUV
Chroma subsampling: 4:2:0
Bit depth: 8 bits
Scan type: Progressive
Bits/(Pixel*Frame): 0.061
Stream size: 1.31 GiB (98%)
Color range: Limited
Color primaries: BT.709
Transfer characteristics: BT.709
Matrix coefficients: BT.709
Codec configuration box: avcC

Audio
ID: 1
Format: AAC LC
Format/Info: Advanced Audio Codec Low Complexity
Codec ID: mp4a-40-2
Duration: 29 min 26 s
Bit rate mode: Variable
Bit rate: 128 kb/s
Maximum bit rate: 131 kb/s
Channel(s): 2 channels
Channel layout: L R
Sampling rate: 48.0 kHz
Frame rate: 46.875 FPS (1024 SPF)
Compression mode: Lossy
Stream size: 26.9 MiB (2%)
Language: English
Default: Yes
Alternate group: 1
ssl  EZTV RSS EZTV Status | EZTV API | DMCA: [email protected]