eztvx.to | eztvstatus.org
Search title:  
TV Packs only
 

Brigada Nimic S01E08 720p WEB-DL AAC2 0 H 264-playWEB EZTV

Episode Breakdown
Brigada Nimic
Brigada Nimic TV Show S01E08

Season: 1
Episode: 8
Download Links
     Torrent Download     Magnet Download
     Anonymous Download
Added 1 month ago by eztv (verified).
Tracker Statistics
Seeds: 0
Peers: 1
Stats generated @ 17:24 on 13th Jul 2024
Torrent Info
Torrent File: Brigada Nimic S01E08 720p WEB-DL AAC2 0 H 264-playWEB[EZTVx.to].mkv
Torrent Hash: 6E4D673EB9D3B106E7D9AC09DD40701010278110
Filesize: 1.17 GB
Released: 6th Jun 2024

File Format: MKV (Matroska)
Resolution: 1280x720 px
Aspect Ratio: 16:9
Alternate Releases S L
Brigada Nimic S01E08 1080p WEB-DL AAC2 0 H 264-playWEB 0 1

Episode Description
Brigada Nimic S01E08 720p WEB-DL AAC2 0 H 264-playWEB EZTV
Brigada Nimic S1E8 Screenshot


General
Unique ID: 279450365506124818198256496231783285987 (0xD23C2EC4C293CD80981627A95C4344E3)
Complete name: Brigada Nimic S01E08 720p WEB-DL AAC2 0 H 264-playWEB.mkv
Format: Matroska
Format version: Version 4
File size: 1.17 GiB
Duration: 46 min 6 s
Overall bit rate mode: Variable
Overall bit rate: 3 627 kb/s
Frame rate: 25.000 FPS
Writing application: mkvmerge v83.0 ('Circle Of Friends') 64-bit
Writing library: libebml v1.4.5 + libmatroska v1.7.1

Video
ID: 1
Format: AVC
Format/Info: Advanced Video Codec
Format profile: [email protected]
Format settings: CABAC / 4 Ref Frames
Format settings, CABAC: Yes
Format settings, Reference frames: 4 frames
Codec ID: V_MPEG4/ISO/AVC
Duration: 46 min 6 s
Bit rate mode: Variable
Bit rate: 3 500 kb/s
Width: 1 280 pixels
Height: 720 pixels
Display aspect ratio: 16:9
Frame rate mode: Constant
Frame rate: 25.000 FPS
Color space: YUV
Chroma subsampling: 4:2:0
Bit depth: 8 bits
Scan type: Progressive
Bits/(Pixel*Frame): 0.152
Stream size: 1.13 GiB (96%)
Default: Yes
Forced: No
Color range: Limited
Color primaries: BT.709
Transfer characteristics: BT.709
Matrix coefficients: BT.709

Audio
ID: 2
Format: AAC LC
Format/Info: Advanced Audio Codec Low Complexity
Codec ID: A_AAC-2
Duration: 46 min 6 s
Bit rate: 128 kb/s
Channel(s): 2 channels
Channel layout: L R
Sampling rate: 44.1 kHz
Frame rate: 43.066 FPS (1024 SPF)
Compression mode: Lossy
Stream size: 42.2 MiB (4%)
Language: Romanian
Default: Yes
Forced: No
ssl  EZTV RSS EZTV Status | EZTV API | DMCA: [email protected]