eztvx.to | eztvstatus.org
Search title:  
TV Packs only
 

Who Killed WCW S01E01 720p CRAV WEB-DL DD5 1 H 264-NTb EZTV

Episode Breakdown
Who Killed WCW?
Who Killed WCW? TV Show S01E01

Season: 1
Episode: 1
Air Date: 4 June, 2024
Download Links
     Torrent Download     Magnet Download
     Anonymous Download
Added 1 month ago by eztv (verified).
Tracker Statistics
Seeds: 1
Peers: 1
Stats generated @ 23:12 on 19th Jul 2024
Torrent Info
Torrent File: Who.Killed.WCW.S01E01.720p.CRAV.WEB-DL.DD5.1.H.264-NTb[EZTVx.to].mkv
Torrent Hash: 0E66D23D9264DC556FA36FD4E0B5BB4455AFB226
Filesize: 1019 MB
Released: 5th Jun 2024

File Format: MKV (Matroska)
Resolution: 1280x720 px
Aspect Ratio: 16:9
Alternate Releases S L
Who Killed WCW S01E01 1080p WEB h264-BAE 34 4
Who Killed WCW S01E01 XviD-AFG 8 0
Who Killed WCW S01E01 1080p CRAV WEB-DL DD5 1 H 264-NTb 1 1
Who Killed WCW S01E01 1080p HEVC x265-MeGusta 10 4
Who Killed WCW S01E01 iNTERNAL 1080p WEB h264-OPUS 6 4
Who Killed WCW S01E01 iNTERNAL 1080p HEVC x265-MeGusta 3 3
Who Killed WCW S01E01 iNTERNAL XviD-AFG 8 2

Who Killed WCW? S01E01 - Where the Big Boys Play

Summary:

Through a series of unlikely events, brash young salesman Eric Bischoff lands control of WCW and aligns with star Hulk Hogan to create a '90s pop culture phenomenon.



Who Killed WCW S01E01 720p CRAV WEB-DL DD5 1 H 264-NTb EZTV
Who Killed WCW? S1E1 Screenshot


General
Unique ID: 32468453401041364083608632639874711727 (0x186D3258A83AD48CA49F9F028C5CC0AF)
Complete name: Who.Killed.WCW.S01E01.720p.CRAV.WEB-DL.DD5.1.H.264-NTb.mkv
Format: Matroska
Format version: Version 4
File size: 1 019 MiB
Duration: 44 min 10 s
Overall bit rate: 3 226 kb/s
Frame rate: 29.970 FPS
Encoded date: 2024-06-05 17:09:54 UTC
Writing application: mkvmerge v84.0 ('Sleeper') 64-bit
Writing library: libebml v1.4.5 + libmatroska v1.7.1

Video
ID: 1
Format: AVC
Format/Info: Advanced Video Codec
Format profile: [email protected]
Format settings: CABAC / 4 Ref Frames
Format settings, CABAC: Yes
Format settings, Reference frames: 4 frames
Codec ID: V_MPEG4/ISO/AVC
Duration: 44 min 10 s
Bit rate: 2 839 kb/s
Width: 1 280 pixels
Height: 720 pixels
Display aspect ratio: 16:9
Frame rate mode: Constant
Frame rate: 29.970 (30000/1001) FPS
Color space: YUV
Chroma subsampling: 4:2:0
Bit depth: 8 bits
Scan type: Progressive
Bits/(Pixel*Frame): 0.103
Stream size: 897 MiB (88%)
Default: Yes
Forced: No
Color range: Limited
Color primaries: BT.709
Transfer characteristics: BT.709
Matrix coefficients: BT.709

Audio
ID: 2
Format: AC-3
Format/Info: Audio Coding 3
Commercial name: Dolby Digital
Codec ID: A_AC3
Duration: 44 min 9 s
Bit rate mode: Constant
Bit rate: 384 kb/s
Channel(s): 6 channels
Channel layout: L R C LFE Ls Rs
Sampling rate: 48.0 kHz
Frame rate: 31.250 FPS (1536 SPF)
Compression mode: Lossy
Stream size: 121 MiB (12%)
Language: English
Service kind: Complete Main
Default: Yes
Forced: No

Text
ID: 3
Format: UTF-8
Codec ID: S_TEXT/UTF8
Codec ID/Info: UTF-8 Plain Text
Duration: 43 min 59 s
Bit rate: 284 b/s
Frame rate: 0.419 FPS
Count of elements: 1106
Stream size: 91.5 KiB (0%)
Language: English
Default: No
Forced: No
ssl  EZTV RSS EZTV Status | EZTV API | DMCA: [email protected]