eztvx.to | eztvstatus.org
Search title:  
TV Packs only
 

The Acolyte S01E02 720p x264-FENiX EZTV

Episode Breakdown
The Acolyte
The Acolyte TV Show S01E02

Season: 1
Episode: 2
Air Date: 4 June, 2024
Download Links
     Torrent Download     Magnet Download
     Anonymous Download
Added 1 month ago by eztv (verified).
Tracker Statistics
Seeds: 17
Peers: 18
Stats generated @ 22:44 on 19th Jul 2024
Torrent Info
Torrent File: The Acolyte S01E02 720p x264-FENiX[EZTVx.to].mkv
Torrent Hash: 45B69BA4D4D8D59B1EF71007EFF53645A97834D8
Filesize: 350 MB
Released: 5th Jun 2024

File Format: MKV (Matroska)
Resolution: 1280x720 px
Aspect Ratio: 16:9
Alternate Releases S L
The Acolyte S01E02 1080p WEB H264-LightSaber 727 116
The Acolyte S01E02 Revenge Justice 1080p DSNP WEB-DL DDP5 1 Atmos H 264-FLUX 232 47
The Acolyte S01E02 Revenge Justice 720p DSNP WEB-DL DD 5 1 Atmos H 264-playWEB 65 28
The Acolyte S01E02 XviD-AFG 45 21
The Acolyte S01E02 1080p x265-ELiTE 148 21
The Acolyte S01E02 720p x265-T0PAZ 24 16
The Acolyte S01E02 Revenge Justice 1080p DSNP WEB-DL DDP5 1 H 264-NTb 31 13

The Acolyte S01E02 - Revenge / Justice

Summary:

An assassin strikes again, but this time the Jedi are there to attempt capture.



The Acolyte S01E02 720p x264-FENiX EZTV
The Acolyte S1E2 Screenshot


General
Unique ID: 102658211487265533449128538859955259843 (0x4D3B409A468290F08803757A59FB89C3)
Complete name: The Acolyte S01E02 720p x264-FENiX.mkv
Format: Matroska
Format version: Version 4
File size: 350 MiB
Duration: 36 min 30 s
Overall bit rate: 1 340 kb/s
Frame rate: 24.000 FPS
Movie name: The.Acolyte.S01E02
Writing application: Lavf60.16.100
Writing library: Lavf60.16.100
Comment: FENiX-Wed-05-Jun-2024,05:07:53,720p,22,fast,N,5480325,1920,1080,1.78
ErrorDetectionType: Per level 1

Video
ID: 1
Format: AVC
Format/Info: Advanced Video Codec
Format profile: [email protected]
Format settings: CABAC / 4 Ref Frames
Format settings, CABAC: Yes
Format settings, Reference frames: 4 frames
Codec ID: V_MPEG4/ISO/AVC
Duration: 36 min 30 s
Bit rate: 865 kb/s
Width: 1 280 pixels
Height: 720 pixels
Display aspect ratio: 16:9
Frame rate mode: Constant
Frame rate: 24.000 FPS
Color space: YUV
Chroma subsampling: 4:2:0
Bit depth: 8 bits
Scan type: Progressive
Bits/(Pixel*Frame): 0.039
Stream size: 226 MiB (65%)
Writing library: x264 core 164
Encoding settings: cabac=1 / ref=2 / deblock=1:0:0 / analyse=0x3:0x113 / me=hex / subme=6 / psy=1 / psy_rd=1.00:0.00 / mixed_ref=1 / me_range=16 / chroma_me=1 / trellis=1 / 8x8dct=1 / cqm=0 / deadzone=21,11 / fast_pskip=1 / chroma_qp_offset=-2 / threads=22 / lookahead_threads=3 / sliced_threads=0 / nr=0 / decimate=1 / interlaced=0 / bluray_compat=0 / constrained_intra=0 / bframes=3 / b_pyramid=2 / b_adapt=1 / b_bias=0 / direct=1 / weightb=1 / open_gop=0 / weightp=1 / keyint=250 / keyint_min=24 / scenecut=40 / intra_refresh=0 / rc_lookahead=30 / rc=crf / mbtree=1 / crf=22.0 / qcomp=0.60 / qpmin=0 / qpmax=69 / qpstep=4 / ip_ratio=1.40 / aq=1:1.00
Default: Yes
Forced: No
Color range: Limited
Color primaries: BT.709
Transfer characteristics: BT.709
Matrix coefficients: BT.709

Audio
ID: 2
Format: AC-3
Format/Info: Audio Coding 3
Commercial name: Dolby Digital
Codec ID: A_AC3
Duration: 36 min 30 s
Bit rate mode: Constant
Bit rate: 448 kb/s
Channel(s): 6 channels
Channel layout: L R C LFE Ls Rs
Sampling rate: 48.0 kHz
Frame rate: 31.250 FPS (1536 SPF)
Bit depth: 32 bits
Compression mode: Lossy
Stream size: 117 MiB (33%)
Writing library: Lavc60.31.102 ac3
Language: English
Service kind: Complete Main
Default: Yes
Forced: No

Text
ID: 3
Format: UTF-8
Codec ID: S_TEXT/UTF8
Codec ID/Info: UTF-8 Plain Text
Duration: 32 min 29 s
Language: English
Default: No
Forced: No
ssl  EZTV RSS EZTV Status | EZTV API | DMCA: [email protected]