eztvx.to | eztvstatus.org
Search title:  
TV Packs only
 

The Acolyte S01E02 Revenge Justice 720p DSNP WEB-DL DD 5 1 Atmos H 264-playWEB EZTV

Episode Breakdown
The Acolyte
The Acolyte TV Show S01E02

Season: 1
Episode: 2
Air Date: 4 June, 2024
Download Links
     Torrent Download     Magnet Download
     Anonymous Download
Added 1 month ago by eztv (verified).
Tracker Statistics
Seeds: 65
Peers: 28
Stats generated @ 23:16 on 19th Jul 2024
Torrent Info
Torrent File: The Acolyte S01E02 Revenge Justice 720p DSNP WEB-DL DD 5 1 Atmos H 264-playWEB[EZTVx.to].mkv
Torrent Hash: E86AEBEABB7A50A20932F181462F4D5AF8422DE2
Filesize: 860 MB
Released: 5th Jun 2024

File Format: MKV (Matroska)
Resolution: 1280x720 px
Aspect Ratio: 16:9
Alternate Releases S L
The Acolyte S01E02 1080p WEB H264-LightSaber 727 116
The Acolyte S01E02 Revenge Justice 1080p DSNP WEB-DL DDP5 1 Atmos H 264-FLUX 232 47
The Acolyte S01E02 XviD-AFG 45 21
The Acolyte S01E02 720p x264-FENiX 17 18
The Acolyte S01E02 1080p x265-ELiTE 148 21
The Acolyte S01E02 720p x265-T0PAZ 24 16
The Acolyte S01E02 Revenge Justice 1080p DSNP WEB-DL DDP5 1 H 264-NTb 31 13

The Acolyte S01E02 - Revenge / Justice

Summary:

An assassin strikes again, but this time the Jedi are there to attempt capture.



The Acolyte S01E02 Revenge  Justice 720p DSNP WEB-DL DD 5 1 Atmos H 264-playWEB EZTV
The Acolyte S1E2 Screenshot


General
Unique ID: 187471701474669457348579997980700205913 (0x8D09BC820EDF6C63D03247D3AEA46359)
Complete name: The Acolyte S01E02 Revenge Justice 720p DSNP WEB-DL DD 5 1 Atmos H 264-playWEB.mkv
Format: Matroska
Format version: Version 4
File size: 860 MiB
Duration: 36 min 30 s
Overall bit rate mode: Variable
Overall bit rate: 3 294 kb/s
Frame rate: 24.000 FPS
Writing application: mkvmerge v84.0 ('Sleeper') 64-bit
Writing library: libebml v1.4.5 + libmatroska v1.7.1

Video
ID: 1
Format: AVC
Format/Info: Advanced Video Codec
Format profile: [email protected]
Format settings: CABAC / 4 Ref Frames
Format settings, CABAC: Yes
Format settings, Reference frames: 4 frames
Codec ID: V_MPEG4/ISO/AVC
Duration: 36 min 30 s
Bit rate mode: Variable
Bit rate: 2 522 kb/s
Maximum bit rate: 6 375 kb/s
Width: 1 280 pixels
Height: 720 pixels
Display aspect ratio: 16:9
Frame rate mode: Constant
Frame rate: 24.000 FPS
Color space: YUV
Chroma subsampling: 4:2:0
Bit depth: 8 bits
Scan type: Progressive
Bits/(Pixel*Frame): 0.114
Time code of first frame: 00:00:00:0000000000
Stream size: 658 MiB (77%)
Default: Yes
Forced: No
Color range: Limited
Color primaries: BT.709
Transfer characteristics: BT.709
Matrix coefficients: BT.709

Audio
ID: 2
Format: E-AC-3 JOC
Format/Info: Enhanced AC-3 with Joint Object Coding
Commercial name: Dolby Digital Plus with Dolby Atmos
Codec ID: A_EAC3
Duration: 36 min 30 s
Bit rate mode: Constant
Bit rate: 768 kb/s
Channel(s): 6 channels
Channel layout: L R C LFE Ls Rs
Sampling rate: 48.0 kHz
Frame rate: 31.250 FPS (1536 SPF)
Compression mode: Lossy
Stream size: 201 MiB (23%)
Language: English
Service kind: Complete Main
Default: Yes
Forced: No
Complexity index: 16
Number of dynamic objects: 15
Bed channel count: 1 channel
Bed channel configuration: LFE

Text #1
ID: 3
Format: UTF-8
Codec ID: S_TEXT/UTF8
Codec ID/Info: UTF-8 Plain Text
Duration: 36 min 15 s
Bit rate: 37 b/s
Frame rate: 0.160 FPS
Count of elements: 349
Stream size: 9.94 KiB (0%)
Language: Czech
Default: No
Forced: No

Text #2
ID: 4
Format: UTF-8
Codec ID: S_TEXT/UTF8
Codec ID/Info: UTF-8 Plain Text
Duration: 36 min 15 s
Bit rate: 37 b/s
Frame rate: 0.114 FPS
Count of elements: 247
Stream size: 9.92 KiB (0%)
Language: Danish
Default: No
Forced: No

Text #3
ID: 5
Format: UTF-8
Codec ID: S_TEXT/UTF8
Codec ID/Info: UTF-8 Plain Text
Duration: 36 min 15 s
Bit rate: 40 b/s
Frame rate: 0.157 FPS
Count of elements: 341
Stream size: 10.8 KiB (0%)
Language: German
Default: No
Forced: No

Text #4
ID: 6
Format: UTF-8
Codec ID: S_TEXT/UTF8
Codec ID/Info: UTF-8 Plain Text
Duration: 36 min 15 s
Bit rate: 72 b/s
Frame rate: 0.161 FPS
Count of elements: 350
Stream size: 19.3 KiB (0%)
Language: Greek
Default: No
Forced: No

Text #5
ID: 7
Format: UTF-8
Codec ID: S_TEXT/UTF8
Codec ID/Info: UTF-8 Plain Text
Duration: 32 min 10 s
Bit rate: 44 b/s
Frame rate: 0.181 FPS
Count of elements: 349
Stream size: 10.5 KiB (0%)
Language: English
Default: No
Forced: No

Text #6
ID: 8
Format: UTF-8
Codec ID: S_TEXT/UTF8
Codec ID/Info: UTF-8 Plain Text
Duration: 32 min 28 s
Bit rate: 56 b/s
Frame rate: 0.237 FPS
Count of elements: 462
Stream size: 13.5 KiB (0%)
Title: SDH
Language: English
Default: No
Forced: No

Text #7
ID: 9
Format: UTF-8
Codec ID: S_TEXT/UTF8
Codec ID/Info: UTF-8 Plain Text
Duration: 36 min 15 s
Bit rate: 38 b/s
Frame rate: 0.160 FPS
Count of elements: 348
Stream size: 10.2 KiB (0%)
Title: Latin American
Language: Spanish
Default: No
Forced: No

Text #8
ID: 10
Format: UTF-8
Codec ID: S_TEXT/UTF8
Codec ID/Info: UTF-8 Plain Text
Duration: 32 min 49 s
Bit rate: 51 b/s
Frame rate: 0.198 FPS
Count of elements: 389
Stream size: 12.4 KiB (0%)
Title: Latin American (SDH)
Language: Spanish
Default: No
Forced: No

Text #9
ID: 11
Format: UTF-8
Codec ID: S_TEXT/UTF8
Codec ID/Info: UTF-8 Plain Text
Duration: 36 min 15 s
Bit rate: 39 b/s
Frame rate: 0.159 FPS
Count of elements: 347
Stream size: 10.6 KiB (0%)
Title: European
Language: Spanish
Default: No
Forced: No

Text #10
ID: 12
Format: UTF-8
Codec ID: S_TEXT/UTF8
Codec ID/Info: UTF-8 Plain Text
Duration: 36 min 15 s
Bit rate: 39 b/s
Frame rate: 0.160 FPS
Count of elements: 348
Stream size: 10.5 KiB (0%)
Language: Finnish
Default: No
Forced: No

Text #11
ID: 13
Format: UTF-8
Codec ID: S_TEXT/UTF8
Codec ID/Info: UTF-8 Plain Text
Duration: 36 min 15 s
Bit rate: 41 b/s
Frame rate: 0.161 FPS
Count of elements: 350
Stream size: 11.0 KiB (0%)
Title: European
Language: French
Default: No
Forced: No

Text #12
ID: 14
Format: UTF-8
Codec ID: S_TEXT/UTF8
Codec ID/Info: UTF-8 Plain Text
Duration: 36 min 15 s
Bit rate: 40 b/s
Frame rate: 0.160 FPS
Count of elements: 349
Stream size: 10.7 KiB (0%)
Language: Hungarian
Default: No
Forced: No

Text #13
ID: 15
Format: UTF-8
Codec ID: S_TEXT/UTF8
Codec ID/Info: UTF-8 Plain Text
Duration: 36 min 15 s
Bit rate: 40 b/s
Frame rate: 0.160 FPS
Count of elements: 348
Stream size: 10.8 KiB (0%)
Language: Italian
Default: No
Forced: No

Text #14
ID: 16
Format: UTF-8
Codec ID: S_TEXT/UTF8
Codec ID/Info: UTF-8 Plain Text
Duration: 36 min 15 s
Bit rate: 34 b/s
Frame rate: 0.161 FPS
Count of elements: 351
Stream size: 9.19 KiB (0%)
Language: Japanese
Default: No
Forced: No

Text #15
ID: 17
Format: UTF-8
Codec ID: S_TEXT/UTF8
Codec ID/Info: UTF-8 Plain Text
Duration: 36 min 15 s
Bit rate: 44 b/s
Frame rate: 0.161 FPS
Count of elements: 350
Stream size: 11.8 KiB (0%)
Language: Korean
Default: No
Forced: No

Text #16
ID: 18
Format: UTF-8
Codec ID: S_TEXT/UTF8
Codec ID/Info: UTF-8 Plain Text
Duration: 36 min 15 s
Bit rate: 40 b/s
Frame rate: 0.154 FPS
Count of elements: 334
Stream size: 10.7 KiB (0%)
Language: Dutch
Default: No
Forced: No

Text #17
ID: 19
Format: UTF-8
Codec ID: S_TEXT/UTF8
Codec ID/Info: UTF-8 Plain Text
Duration: 36 min 15 s
Bit rate: 36 b/s
Frame rate: 0.160 FPS
Count of elements: 348
Stream size: 9.77 KiB (0%)
Language: Norwegian
Default: No
Forced: No

Text #18
ID: 20
Format: UTF-8
Codec ID: S_TEXT/UTF8
Codec ID/Info: UTF-8 Plain Text
Duration: 36 min 15 s
Bit rate: 40 b/s
Frame rate: 0.160 FPS
Count of elements: 349
Stream size: 10.8 KiB (0%)
Language: Polish
Default: No
Forced: No

Text #19
ID: 21
Format: UTF-8
Codec ID: S_TEXT/UTF8
Codec ID/Info: UTF-8 Plain Text
Duration: 36 min 15 s
Bit rate: 42 b/s
Frame rate: 0.160 FPS
Count of elements: 348
Stream size: 11.2 KiB (0%)
Title: Brazilian
Language: Portuguese
Default: No
Forced: No

Text #20
ID: 22
Format: UTF-8
Codec ID: S_TEXT/UTF8
Codec ID/Info: UTF-8 Plain Text
Duration: 32 min 49 s
Bit rate: 53 b/s
Frame rate: 0.233 FPS
Count of elements: 458
Stream size: 12.9 KiB (0%)
Title: Brazilian (SDH)
Language: Portuguese
Default: No
Forced: No

Text #21
ID: 23
Format: UTF-8
Codec ID: S_TEXT/UTF8
Codec ID/Info: UTF-8 Plain Text
Duration: 36 min 15 s
Bit rate: 38 b/s
Frame rate: 0.160 FPS
Count of elements: 348
Stream size: 10.2 KiB (0%)
Title: European
Language: Portuguese
Default: No
Forced: No

Text #22
ID: 24
Format: UTF-8
Codec ID: S_TEXT/UTF8
Codec ID/Info: UTF-8 Plain Text
Duration: 36 min 15 s
Bit rate: 40 b/s
Frame rate: 0.160 FPS
Count of elements: 348
Stream size: 10.8 KiB (0%)
Language: Romanian
Default: No
Forced: No

Text #23
ID: 25
Format: UTF-8
Codec ID: S_TEXT/UTF8
Codec ID/Info: UTF-8 Plain Text
Duration: 36 min 15 s
Bit rate: 37 b/s
Frame rate: 0.160 FPS
Count of elements: 349
Stream size: 10.0 KiB (0%)
Language: Slovak
Default: No
Forced: No

Text #24
ID: 26
Format: UTF-8
Codec ID: S_TEXT/UTF8
Codec ID/Info: UTF-8 Plain Text
Duration: 36 min 15 s
Bit rate: 37 b/s
Frame rate: 0.125 FPS
Count of elements: 272
Stream size: 9.93 KiB (0%)
Language: Swedish
Default: No
Forced: No

Text #25
ID: 27
Format: UTF-8
Codec ID: S_TEXT/UTF8
Codec ID/Info: UTF-8 Plain Text
Duration: 36 min 15 s
Bit rate: 39 b/s
Frame rate: 0.160 FPS
Count of elements: 348
Stream size: 10.6 KiB (0%)
Language: Turkish
Default: No
Forced: No

Text #26
ID: 28
Format: UTF-8
Codec ID: S_TEXT/UTF8
Codec ID/Info: UTF-8 Plain Text
Duration: 36 min 15 s
Bit rate: 33 b/s
Frame rate: 0.161 FPS
Count of elements: 351
Stream size: 8.87 KiB (0%)
Title: Hong Kong
Language: Chinese
Default: No
Forced: No

Text #27
ID: 29
Format: UTF-8
Codec ID: S_TEXT/UTF8
Codec ID/Info: UTF-8 Plain Text
Duration: 36 min 15 s
Bit rate: 31 b/s
Frame rate: 0.159 FPS
Count of elements: 347
Stream size: 8.43 KiB (0%)
Title: Traditional
Language: Chinese
Default: No
Forced: No

Menu
00:00:04.000: en:Recap
00:00:44.833: en:Scene 1
00:04:12.167: en:Intro
00:04:21.625: en:Scene 2
00:34:44.917: en:Credits
ssl  EZTV RSS EZTV Status | EZTV API | DMCA: [email protected]