eztvx.to | eztvstatus.org
Search title:  
TV Packs only
 

The Acolyte S01E01 Lost Found 1080p DSNP WEB-DL DDP5 1 Atmos H 264-FLUX EZTV

Episode Breakdown
The Acolyte
The Acolyte TV Show S01E01

Season: 1
Episode: 1
Air Date: 4 June, 2024
Download Links
     Torrent Download     Magnet Download
     Anonymous Download
Added 11 days ago by eztv (verified).
Tracker Statistics
Seeds: 1,075
Peers: 331
Stats generated @ 03:49 on 16th Jun 2024
Torrent Info
Torrent File: The Acolyte S01E01 Lost Found 1080p DSNP WEB-DL DDP5 1 Atmos H 264-FLUX[EZTVx.to].mkv
Torrent Hash: 1FD500A0E35DB936BEFBEE2BEF8F9411F6F9ACD8
Filesize: 1.85 GB
Released: 5th Jun 2024

File Format: MKV (Matroska)
Resolution: 1920x1080 px
Aspect Ratio: 16:9
Alternate Releases S L
The Acolyte S01E01 1080p WEB H264-LightSaber 109 30
The Acolyte S01E01 Lost Found 720p DSNP WEB-DL DD 5 1 Atmos H 264-playWEB 154 87
The Acolyte S01E01 1080p x265-ELiTE 512 99
The Acolyte S01E01 XviD-AFG 90 35
The Acolyte S01E01 720p x265-T0PAZ 59 26
The Acolyte S01E01 480p x264-RUBiK 32 23
The Acolyte S01E01 1080p HEVC x265-MeGusta 269 56

The Acolyte S01E01 - Lost / Found

Summary:

The Jedi pursue a suspect after a shocking crime.



The Acolyte S01E01 Lost Found 1080p DSNP WEB-DL DDP5 1 Atmos H 264-FLUX EZTV
The Acolyte S1E1 Screenshot


General
Unique ID: 10808888385982892787928825984965124098 (0x821B757A026A2C9AE1AC7EDB7EBA002)
Complete name: The Acolyte S01E01 Lost Found 1080p DSNP WEB-DL DDP5 1 Atmos H 264-FLUX.mkv
Format: Matroska
Format version: Version 4
File size: 1.85 GiB
Duration: 40 min 47 s
Overall bit rate mode: Variable
Overall bit rate: 6 502 kb/s
Frame rate: 24.000 FPS
Writing application: mkvmerge v79.0 ('Funeral Pyres') 64-bit
Writing library: libebml v1.4.4 + libmatroska v1.7.1

Video
ID: 1
Format: AVC
Format/Info: Advanced Video Codec
Format profile: High@L4
Format settings: CABAC / 4 Ref Frames
Format settings, CABAC: Yes
Format settings, Reference frames: 4 frames
Codec ID: V_MPEG4/ISO/AVC
Duration: 40 min 47 s
Bit rate mode: Variable
Bit rate: 5 731 kb/s
Maximum bit rate: 12.7 Mb/s
Width: 1 920 pixels
Height: 1 080 pixels
Display aspect ratio: 16:9
Frame rate mode: Constant
Frame rate: 24.000 FPS
Color space: YUV
Chroma subsampling: 4:2:0
Bit depth: 8 bits
Scan type: Progressive
Bits/(Pixel*Frame): 0.115
Time code of first frame: 00:00:00:0000000000
Stream size: 1.63 GiB (88%)
Language: English
Default: Yes
Forced: No
Color range: Limited
Color primaries: BT.709
Transfer characteristics: BT.709
Matrix coefficients: BT.709

Audio
ID: 2
Format: E-AC-3 JOC
Format/Info: Enhanced AC-3 with Joint Object Coding
Commercial name: Dolby Digital Plus with Dolby Atmos
Codec ID: A_EAC3
Duration: 40 min 47 s
Bit rate mode: Constant
Bit rate: 768 kb/s
Channel(s): 6 channels
Channel layout: L R C LFE Ls Rs
Sampling rate: 48.0 kHz
Frame rate: 31.250 FPS (1536 SPF)
Compression mode: Lossy
Stream size: 224 MiB (12%)
Language: English
Service kind: Complete Main
Default: Yes
Forced: No
Complexity index: 16
Number of dynamic objects: 15
Bed channel count: 1 channel
Bed channel configuration: LFE

Text #1
ID: 3
Format: UTF-8
Codec ID: S_TEXT/UTF8
Codec ID/Info: UTF-8 Plain Text
Duration: 35 min 41 s
Bit rate: 35 b/s
Frame rate: 0.151 FPS
Count of elements: 324
Stream size: 9.32 KiB (0%)
Language: English
Default: No
Forced: No

Text #2
ID: 4
Format: UTF-8
Codec ID: S_TEXT/UTF8
Codec ID/Info: UTF-8 Plain Text
Duration: 36 min 37 s
Bit rate: 49 b/s
Frame rate: 0.225 FPS
Count of elements: 494
Stream size: 13.4 KiB (0%)
Title: SDH
Language: English
Default: No
Forced: No

Text #3
ID: 5
Format: UTF-8
Codec ID: S_TEXT/UTF8
Codec ID/Info: UTF-8 Plain Text
Duration: 40 min 8 s
Bit rate: 31 b/s
Frame rate: 0.134 FPS
Count of elements: 322
Stream size: 9.18 KiB (0%)
Language: Czech
Default: No
Forced: No

Text #4
ID: 6
Format: UTF-8
Codec ID: S_TEXT/UTF8
Codec ID/Info: UTF-8 Plain Text
Duration: 40 min 8 s
Bit rate: 30 b/s
Frame rate: 0.098 FPS
Count of elements: 235
Stream size: 8.97 KiB (0%)
Language: Danish
Default: No
Forced: No

Text #5
ID: 7
Format: UTF-8
Codec ID: S_TEXT/UTF8
Codec ID/Info: UTF-8 Plain Text
Duration: 40 min 8 s
Bit rate: 33 b/s
Frame rate: 0.137 FPS
Count of elements: 329
Stream size: 9.89 KiB (0%)
Language: German
Default: No
Forced: No

Text #6
ID: 8
Format: UTF-8
Codec ID: S_TEXT/UTF8
Codec ID/Info: UTF-8 Plain Text
Duration: 40 min 8 s
Bit rate: 60 b/s
Frame rate: 0.135 FPS
Count of elements: 324
Stream size: 17.8 KiB (0%)
Language: Greek
Default: No
Forced: No

Text #7
ID: 9
Format: UTF-8
Codec ID: S_TEXT/UTF8
Codec ID/Info: UTF-8 Plain Text
Duration: 40 min 8 s
Bit rate: 32 b/s
Frame rate: 0.134 FPS
Count of elements: 323
Stream size: 9.49 KiB (0%)
Title: Latin American
Language: Spanish (Latin America)
Default: No
Forced: No

Text #8
ID: 10
Format: UTF-8
Codec ID: S_TEXT/UTF8
Codec ID/Info: UTF-8 Plain Text
Duration: 40 min 8 s
Bit rate: 33 b/s
Frame rate: 0.133 FPS
Count of elements: 321
Stream size: 9.87 KiB (0%)
Language: Spanish (ES)
Default: No
Forced: No

Text #9
ID: 11
Format: UTF-8
Codec ID: S_TEXT/UTF8
Codec ID/Info: UTF-8 Plain Text
Duration: 40 min 8 s
Bit rate: 32 b/s
Frame rate: 0.133 FPS
Count of elements: 320
Stream size: 9.57 KiB (0%)
Language: Finnish
Default: No
Forced: No

Text #10
ID: 12
Format: UTF-8
Codec ID: S_TEXT/UTF8
Codec ID/Info: UTF-8 Plain Text
Duration: 40 min 8 s
Bit rate: 33 b/s
Frame rate: 0.131 FPS
Count of elements: 316
Stream size: 9.90 KiB (0%)
Language: French (FR)
Default: No
Forced: No

Text #11
ID: 13
Format: UTF-8
Codec ID: S_TEXT/UTF8
Codec ID/Info: UTF-8 Plain Text
Duration: 40 min 8 s
Bit rate: 34 b/s
Frame rate: 0.135 FPS
Count of elements: 324
Stream size: 10.0 KiB (0%)
Language: Hungarian
Default: No
Forced: No

Text #12
ID: 14
Format: UTF-8
Codec ID: S_TEXT/UTF8
Codec ID/Info: UTF-8 Plain Text
Duration: 40 min 8 s
Bit rate: 33 b/s
Frame rate: 0.134 FPS
Count of elements: 322
Stream size: 9.93 KiB (0%)
Language: Italian
Default: No
Forced: No

Text #13
ID: 15
Format: UTF-8
Codec ID: S_TEXT/UTF8
Codec ID/Info: UTF-8 Plain Text
Duration: 40 min 8 s
Bit rate: 30 b/s
Frame rate: 0.134 FPS
Count of elements: 323
Stream size: 9.03 KiB (0%)
Language: Japanese
Default: No
Forced: No

Text #14
ID: 16
Format: UTF-8
Codec ID: S_TEXT/UTF8
Codec ID/Info: UTF-8 Plain Text
Duration: 40 min 8 s
Bit rate: 36 b/s
Frame rate: 0.134 FPS
Count of elements: 323
Stream size: 10.8 KiB (0%)
Language: Korean
Default: No
Forced: No

Text #15
ID: 17
Format: UTF-8
Codec ID: S_TEXT/UTF8
Codec ID/Info: UTF-8 Plain Text
Duration: 40 min 8 s
Bit rate: 32 b/s
Frame rate: 0.127 FPS
Count of elements: 307
Stream size: 9.66 KiB (0%)
Language: Dutch
Default: No
Forced: No

Text #16
ID: 18
Format: UTF-8
Codec ID: S_TEXT/UTF8
Codec ID/Info: UTF-8 Plain Text
Duration: 40 min 8 s
Bit rate: 29 b/s
Frame rate: 0.133 FPS
Count of elements: 321
Stream size: 8.75 KiB (0%)
Language: Norwegian
Default: No
Forced: No

Text #17
ID: 19
Format: UTF-8
Codec ID: S_TEXT/UTF8
Codec ID/Info: UTF-8 Plain Text
Duration: 40 min 8 s
Bit rate: 33 b/s
Frame rate: 0.132 FPS
Count of elements: 319
Stream size: 9.93 KiB (0%)
Language: Polish
Default: No
Forced: No

Text #18
ID: 20
Format: UTF-8
Codec ID: S_TEXT/UTF8
Codec ID/Info: UTF-8 Plain Text
Duration: 40 min 8 s
Bit rate: 34 b/s
Frame rate: 0.133 FPS
Count of elements: 321
Stream size: 10.1 KiB (0%)
Title: Brazilian
Language: Portuguese (BR)
Default: No
Forced: No

Text #19
ID: 21
Format: UTF-8
Codec ID: S_TEXT/UTF8
Codec ID/Info: UTF-8 Plain Text
Duration: 40 min 8 s
Bit rate: 32 b/s
Frame rate: 0.133 FPS
Count of elements: 321
Stream size: 9.62 KiB (0%)
Language: Portuguese (PT)
Default: No
Forced: No

Text #20
ID: 22
Format: UTF-8
Codec ID: S_TEXT/UTF8
Codec ID/Info: UTF-8 Plain Text
Duration: 40 min 8 s
Bit rate: 34 b/s
Frame rate: 0.134 FPS
Count of elements: 322
Stream size: 10.1 KiB (0%)
Language: Romanian
Default: No
Forced: No

Text #21
ID: 23
Format: UTF-8
Codec ID: S_TEXT/UTF8
Codec ID/Info: UTF-8 Plain Text
Duration: 40 min 8 s
Bit rate: 30 b/s
Frame rate: 0.134 FPS
Count of elements: 322
Stream size: 9.11 KiB (0%)
Language: Slovak
Default: No
Forced: No

Text #22
ID: 24
Format: UTF-8
Codec ID: S_TEXT/UTF8
Codec ID/Info: UTF-8 Plain Text
Duration: 40 min 8 s
Bit rate: 30 b/s
Frame rate: 0.106 FPS
Count of elements: 256
Stream size: 8.86 KiB (0%)
Language: Swedish
Default: No
Forced: No

Text #23
ID: 25
Format: UTF-8
Codec ID: S_TEXT/UTF8
Codec ID/Info: UTF-8 Plain Text
Duration: 40 min 8 s
Bit rate: 32 b/s
Frame rate: 0.134 FPS
Count of elements: 323
Stream size: 9.65 KiB (0%)
Language: Turkish
Default: No
Forced: No

Text #24
ID: 26
Format: UTF-8
Codec ID: S_TEXT/UTF8
Codec ID/Info: UTF-8 Plain Text
Duration: 40 min 8 s
Bit rate: 26 b/s
Frame rate: 0.135 FPS
Count of elements: 325
Stream size: 7.90 KiB (0%)
Title: Hong Kong
Language: Chinese (HK)
Default: No
Forced: No

Text #25
ID: 27
Format: UTF-8
Codec ID: S_TEXT/UTF8
Codec ID/Info: UTF-8 Plain Text
Duration: 40 min 8 s
Bit rate: 26 b/s
Frame rate: 0.135 FPS
Count of elements: 324
Stream size: 7.69 KiB (0%)
Title: Traditional
Language: Chinese (Traditional)
Default: No
Forced: No

Menu
00:07:21.000: en:Intro
00:07:30.333: en:Scene 1
00:07:30.375: en:Scene 2
00:11:46.417: en:Scene 3
00:15:46.500: en:Scene 4
00:24:30.417: en:Scene 5
00:31:34.667: en:Scene 6
00:36:59.917: en:Credits
ssl  EZTV RSS EZTV Status | EZTV API | DMCA: [email protected]