eztvx.to | eztvstatus.org
Search title:  
TV Packs only
 

Brigada Nimic S01E06 720p WEB-DL AAC2 0 H 264-playWEB EZTV

Episode Breakdown
Brigada Nimic
Brigada Nimic TV Show S01E06

Season: 1
Episode: 6
Download Links
     Torrent Download     Magnet Download
     Anonymous Download
Added 1 month ago by eztv (verified).
Tracker Statistics
Seeds: 0
Peers: 0
Stats generated @ 19:10 on 13th Jul 2024
Torrent Info
Torrent File: Brigada Nimic S01E06 720p WEB-DL AAC2 0 H 264-playWEB[EZTVx.to].mkv
Torrent Hash: 0C252DBB19314290CF5718D5C68067216107B40E
Filesize: 1.08 GB
Released: 29th May 2024

File Format: MKV (Matroska)
Resolution: 1280x720 px
Aspect Ratio: 16:9
Alternate Releases S L
Brigada Nimic S01E06 1080p WEB-DL AAC2 0 H 264-playWEB 0 1

Episode Description


Brigada Nimic S01E06 720p WEB-DL AAC2 0 H 264-playWEB EZTV
Brigada Nimic S1E6 Screenshot


General
Unique ID: 187921663494860707476103759474944694317 (0x8D60655933FED1C9CB010558B3F8D82D)
Complete name: Brigada Nimic S01E06 720p WEB-DL AAC2 0 H 264-playWEB.mkv
Format: Matroska
Format version: Version 4
File size: 1.08 GiB
Duration: 42 min 39 s
Overall bit rate mode: Variable
Overall bit rate: 3 625 kb/s
Frame rate: 25.000 FPS
Writing application: mkvmerge v83.0 ('Circle Of Friends') 64-bit
Writing library: libebml v1.4.5 + libmatroska v1.7.1

Video
ID: 1
Format: AVC
Format/Info: Advanced Video Codec
Format profile: [email protected]
Format settings: CABAC / 4 Ref Frames
Format settings, CABAC: Yes
Format settings, Reference frames: 4 frames
Codec ID: V_MPEG4/ISO/AVC
Duration: 42 min 39 s
Bit rate mode: Variable
Bit rate: 3 500 kb/s
Width: 1 280 pixels
Height: 720 pixels
Display aspect ratio: 16:9
Frame rate mode: Constant
Frame rate: 25.000 FPS
Color space: YUV
Chroma subsampling: 4:2:0
Bit depth: 8 bits
Scan type: Progressive
Bits/(Pixel*Frame): 0.152
Stream size: 1.04 GiB (96%)
Default: Yes
Forced: No
Color range: Limited
Color primaries: BT.709
Transfer characteristics: BT.709
Matrix coefficients: BT.709

Audio
ID: 2
Format: AAC LC
Format/Info: Advanced Audio Codec Low Complexity
Codec ID: A_AAC-2
Duration: 42 min 39 s
Bit rate: 128 kb/s
Channel(s): 2 channels
Channel layout: L R
Sampling rate: 44.1 kHz
Frame rate: 43.066 FPS (1024 SPF)
Compression mode: Lossy
Stream size: 39.0 MiB (4%)
Language: Romanian
Default: Yes
Forced: No
ssl  EZTV RSS EZTV Status | EZTV API | DMCA: [email protected]