eztvx.to | eztvstatus.org
Search title:  
TV Packs only
 

Dark Matter 2024 S01E04 The Corridor 720p ATVP WEB-DL DDP5 1 Atmos H 264-FLUX EZTV

Episode Breakdown
Dark Matter
Dark Matter TV Show S01E04

Season: 1
Episode: 4
Air Date: 22 May, 2024
Download Links
     Torrent Download     Magnet Download
     Anonymous Download
Added 23 days ago by eztv (verified).
Tracker Statistics
Seeds: 180
Peers: 67
Stats generated @ 19:57 on 14th Jun 2024
Torrent Info
Torrent File: Dark Matter 2024 S01E04 The Corridor 720p ATVP WEB-DL DDP5 1 Atmos H 264-FLUX[EZTVx.to].mkv
Torrent Hash: BBC9C3D25F20C42669C7D54089A3EEE8BA7FB0AC
Filesize: 1.53 GB
Released: 22nd May 2024

File Format: MKV (Matroska)
Resolution: 1280x720 px
Aspect Ratio: 16:9
Alternate Releases S L
Dark Matter 2024 S01E04 1080p WEB H264-SuccessfulCrab 162 13
Dark Matter 2024 S01E04 The Corridor 1080p ATVP WEB-DL DDP5 1 Atmos H 264-FLUX 46 5
Dark Matter 2024 S01E04 XviD-AFG 81 8
Dark Matter 2024 S01E04 1080p x265-ELiTE 113 44
Dark Matter 2024 S01E04 1080p HEVC x265-MeGusta 265 148
Dark Matter 2024 S01E04 720p x265-T0PAZ 63 24
Dark Matter 2024 S01E04 720p x264-FENiX 22 4

Dark Matter S01E04 - The Corridor

Summary:

Jason and Amanda fight to stay alive in the dangerous Corridor. Jason2 makes some life changes and visits an old friend.



Dark Matter 2024 S01E04 The Corridor 720p ATVP WEB-DL DDP5 1 Atmos H 264-FLUX EZTV
Dark Matter S1E4 Screenshot


General
Unique ID: 255177675741158508139179761125759298927 (0xBFF96EC470155D73A42F0A71EC1AAD6F)
Complete name: Dark Matter 2024 S01E04 The Corridor 720p ATVP WEB-DL DDP5 1 Atmos H 264-FLUX.mkv
Format: Matroska
Format version: Version 4
File size: 1.53 GiB
Duration: 59 min 49 s
Overall bit rate: 3 654 kb/s
Frame rate: 23.976 FPS
Writing application: mkvmerge v83.0 ('Circle Of Friends') 64-bit
Writing library: libebml v1.4.5 + libmatroska v1.7.1

Video
ID: 1
Format: AVC
Format/Info: Advanced Video Codec
Format profile: [email protected]
Format settings: CABAC / 5 Ref Frames
Format settings, CABAC: Yes
Format settings, Reference frames: 5 frames
Codec ID: V_MPEG4/ISO/AVC
Duration: 59 min 49 s
Bit rate: 2 880 kb/s
Width: 1 356 pixels
Height: 678 pixels
Display aspect ratio: 2.000
Frame rate mode: Constant
Frame rate: 23.976 (24000/1001) FPS
Color space: YUV
Chroma subsampling: 4:2:0
Bit depth: 8 bits
Scan type: Progressive
Bits/(Pixel*Frame): 0.131
Stream size: 1.20 GiB (79%)
Language: English
Default: Yes
Forced: No
Color range: Limited
Color primaries: BT.709
Transfer characteristics: BT.709
Matrix coefficients: BT.709

Audio
ID: 2
Format: E-AC-3 JOC
Format/Info: Enhanced AC-3 with Joint Object Coding
Commercial name: Dolby Digital Plus with Dolby Atmos
Codec ID: A_EAC3
Duration: 59 min 49 s
Bit rate mode: Constant
Bit rate: 768 kb/s
Channel(s): 6 channels
Channel layout: L R C LFE Ls Rs
Sampling rate: 48.0 kHz
Frame rate: 31.250 FPS (1536 SPF)
Compression mode: Lossy
Stream size: 329 MiB (21%)
Language: English
Service kind: Complete Main
Default: Yes
Forced: No
Complexity index: 16
Number of dynamic objects: 15
Bed channel count: 1 channel
Bed channel configuration: LFE

Text #1
ID: 3
Format: UTF-8
Codec ID: S_TEXT/UTF8
Codec ID/Info: UTF-8 Plain Text
Duration: 56 min 50 s
Bit rate: 38 b/s
Frame rate: 0.174 FPS
Count of elements: 595
Stream size: 16.0 KiB (0%)
Language: English
Default: No
Forced: No

Text #2
ID: 4
Format: UTF-8
Codec ID: S_TEXT/UTF8
Codec ID/Info: UTF-8 Plain Text
Duration: 58 min 16 s
Bit rate: 46 b/s
Frame rate: 0.217 FPS
Count of elements: 757
Stream size: 19.9 KiB (0%)
Title: SDH
Language: English
Default: No
Forced: No

Text #3
ID: 5
Format: UTF-8
Codec ID: S_TEXT/UTF8
Codec ID/Info: UTF-8 Plain Text
Duration: 59 min 27 s
Bit rate: 57 b/s
Frame rate: 0.167 FPS
Count of elements: 596
Stream size: 24.8 KiB (0%)
Language: Arabic
Default: No
Forced: No

Text #4
ID: 6
Format: UTF-8
Codec ID: S_TEXT/UTF8
Codec ID/Info: UTF-8 Plain Text
Duration: 59 min 27 s
Bit rate: 57 b/s
Frame rate: 0.130 FPS
Count of elements: 464
Stream size: 25.2 KiB (0%)
Language: Bulgarian
Default: No
Forced: No

Text #5
ID: 7
Format: UTF-8
Codec ID: S_TEXT/UTF8
Codec ID/Info: UTF-8 Plain Text
Duration: 59 min 27 s
Bit rate: 35 b/s
Frame rate: 0.168 FPS
Count of elements: 600
Stream size: 15.3 KiB (0%)
Title: Simplified
Language: Chinese (Simplified)
Default: No
Forced: No

Text #6
ID: 8
Format: UTF-8
Codec ID: S_TEXT/UTF8
Codec ID/Info: UTF-8 Plain Text
Duration: 59 min 27 s
Bit rate: 33 b/s
Frame rate: 0.168 FPS
Count of elements: 601
Stream size: 14.4 KiB (0%)
Title: Traditional
Language: Chinese (Traditional)
Default: No
Forced: No

Text #7
ID: 9
Format: UTF-8
Codec ID: S_TEXT/UTF8
Codec ID/Info: UTF-8 Plain Text
Duration: 59 min 27 s
Bit rate: 34 b/s
Frame rate: 0.156 FPS
Count of elements: 556
Stream size: 14.9 KiB (0%)
Language: Czech
Default: No
Forced: No

Text #8
ID: 10
Format: UTF-8
Codec ID: S_TEXT/UTF8
Codec ID/Info: UTF-8 Plain Text
Duration: 59 min 27 s
Bit rate: 34 b/s
Frame rate: 0.138 FPS
Count of elements: 491
Stream size: 15.1 KiB (0%)
Language: Danish
Default: No
Forced: No

Text #9
ID: 11
Format: UTF-8
Codec ID: S_TEXT/UTF8
Codec ID/Info: UTF-8 Plain Text
Duration: 59 min 18 s
Bit rate: 35 b/s
Frame rate: 0.161 FPS
Count of elements: 573
Stream size: 15.3 KiB (0%)
Language: German
Default: No
Forced: No

Text #10
ID: 12
Format: UTF-8
Codec ID: S_TEXT/UTF8
Codec ID/Info: UTF-8 Plain Text
Duration: 59 min 27 s
Bit rate: 62 b/s
Frame rate: 0.155 FPS
Count of elements: 554
Stream size: 27.2 KiB (0%)
Language: Greek
Default: No
Forced: No

Text #11
ID: 13
Format: UTF-8
Codec ID: S_TEXT/UTF8
Codec ID/Info: UTF-8 Plain Text
Duration: 59 min 27 s
Bit rate: 37 b/s
Frame rate: 0.169 FPS
Count of elements: 604
Stream size: 16.3 KiB (0%)
Title: Latin American
Language: Spanish (Latin America)
Default: No
Forced: No

Text #12
ID: 14
Format: UTF-8
Codec ID: S_TEXT/UTF8
Codec ID/Info: UTF-8 Plain Text
Duration: 59 min 27 s
Bit rate: 35 b/s
Frame rate: 0.166 FPS
Count of elements: 593
Stream size: 15.5 KiB (0%)
Language: Spanish (ES)
Default: No
Forced: No

Text #13
ID: 15
Format: UTF-8
Codec ID: S_TEXT/UTF8
Codec ID/Info: UTF-8 Plain Text
Duration: 59 min 27 s
Bit rate: 35 b/s
Frame rate: 0.167 FPS
Count of elements: 594
Stream size: 15.6 KiB (0%)
Language: Estonian
Default: No
Forced: No

Text #14
ID: 16
Format: UTF-8
Codec ID: S_TEXT/UTF8
Codec ID/Info: UTF-8 Plain Text
Duration: 59 min 27 s
Bit rate: 38 b/s
Frame rate: 0.168 FPS
Count of elements: 598
Stream size: 16.7 KiB (0%)
Language: Finnish
Default: No
Forced: No

Text #15
ID: 17
Format: UTF-8
Codec ID: S_TEXT/UTF8
Codec ID/Info: UTF-8 Plain Text
Duration: 59 min 25 s
Bit rate: 34 b/s
Frame rate: 0.170 FPS
Count of elements: 606
Stream size: 15.1 KiB (0%)
Title: Canadian
Language: French (CA)
Default: No
Forced: No

Text #16
ID: 18
Format: UTF-8
Codec ID: S_TEXT/UTF8
Codec ID/Info: UTF-8 Plain Text
Duration: 59 min 25 s
Bit rate: 34 b/s
Frame rate: 0.170 FPS
Count of elements: 605
Stream size: 15.1 KiB (0%)
Language: French (FR)
Default: No
Forced: No

Text #17
ID: 19
Format: UTF-8
Codec ID: S_TEXT/UTF8
Codec ID/Info: UTF-8 Plain Text
Duration: 59 min 27 s
Bit rate: 56 b/s
Frame rate: 0.168 FPS
Count of elements: 600
Stream size: 24.4 KiB (0%)
Language: Hebrew
Default: No
Forced: No

Text #18
ID: 20
Format: UTF-8
Codec ID: S_TEXT/UTF8
Codec ID/Info: UTF-8 Plain Text
Duration: 59 min 27 s
Bit rate: 100 b/s
Frame rate: 0.168 FPS
Count of elements: 601
Stream size: 43.8 KiB (0%)
Language: Hindi
Default: No
Forced: No

Text #19
ID: 21
Format: UTF-8
Codec ID: S_TEXT/UTF8
Codec ID/Info: UTF-8 Plain Text
Duration: 59 min 27 s
Bit rate: 36 b/s
Frame rate: 0.167 FPS
Count of elements: 597
Stream size: 15.8 KiB (0%)
Language: Hungarian
Default: No
Forced: No

Text #20
ID: 22
Format: UTF-8
Codec ID: S_TEXT/UTF8
Codec ID/Info: UTF-8 Plain Text
Duration: 59 min 27 s
Bit rate: 35 b/s
Frame rate: 0.168 FPS
Count of elements: 599
Stream size: 15.4 KiB (0%)
Language: Indonesian
Default: No
Forced: No

Text #21
ID: 23
Format: UTF-8
Codec ID: S_TEXT/UTF8
Codec ID/Info: UTF-8 Plain Text
Duration: 58 min 47 s
Bit rate: 35 b/s
Frame rate: 0.170 FPS
Count of elements: 599
Stream size: 15.4 KiB (0%)
Language: Italian
Default: No
Forced: No

Text #22
ID: 24
Format: UTF-8
Codec ID: S_TEXT/UTF8
Codec ID/Info: UTF-8 Plain Text
Duration: 59 min 27 s
Bit rate: 29 b/s
Frame rate: 0.164 FPS
Count of elements: 586
Stream size: 13.0 KiB (0%)
Language: Japanese
Default: No
Forced: No

Text #23
ID: 25
Format: UTF-8
Codec ID: S_TEXT/UTF8
Codec ID/Info: UTF-8 Plain Text
Duration: 59 min 27 s
Bit rate: 39 b/s
Frame rate: 0.168 FPS
Count of elements: 601
Stream size: 17.1 KiB (0%)
Language: Korean
Default: No
Forced: No

Text #24
ID: 26
Format: UTF-8
Codec ID: S_TEXT/UTF8
Codec ID/Info: UTF-8 Plain Text
Duration: 59 min 27 s
Bit rate: 36 b/s
Frame rate: 0.166 FPS
Count of elements: 593
Stream size: 15.9 KiB (0%)
Language: Lithuanian
Default: No
Forced: No

Text #25
ID: 27
Format: UTF-8
Codec ID: S_TEXT/UTF8
Codec ID/Info: UTF-8 Plain Text
Duration: 59 min 27 s
Bit rate: 37 b/s
Frame rate: 0.167 FPS
Count of elements: 597
Stream size: 16.4 KiB (0%)
Language: Latvian
Default: No
Forced: No

Text #26
ID: 28
Format: UTF-8
Codec ID: S_TEXT/UTF8
Codec ID/Info: UTF-8 Plain Text
Duration: 59 min 27 s
Bit rate: 35 b/s
Frame rate: 0.168 FPS
Count of elements: 598
Stream size: 15.7 KiB (0%)
Language: Malay
Default: No
Forced: No

Text #27
ID: 29
Format: UTF-8
Codec ID: S_TEXT/UTF8
Codec ID/Info: UTF-8 Plain Text
Duration: 59 min 27 s
Bit rate: 34 b/s
Frame rate: 0.118 FPS
Count of elements: 422
Stream size: 15.1 KiB (0%)
Language: Dutch
Default: No
Forced: No

Text #28
ID: 30
Format: UTF-8
Codec ID: S_TEXT/UTF8
Codec ID/Info: UTF-8 Plain Text
Duration: 59 min 27 s
Bit rate: 34 b/s
Frame rate: 0.158 FPS
Count of elements: 564
Stream size: 14.9 KiB (0%)
Language: Norwegian
Default: No
Forced: No

Text #29
ID: 31
Format: UTF-8
Codec ID: S_TEXT/UTF8
Codec ID/Info: UTF-8 Plain Text
Duration: 59 min 27 s
Bit rate: 36 b/s
Frame rate: 0.168 FPS
Count of elements: 598
Stream size: 16.1 KiB (0%)
Language: Polish
Default: No
Forced: No

Text #30
ID: 32
Format: UTF-8
Codec ID: S_TEXT/UTF8
Codec ID/Info: UTF-8 Plain Text
Duration: 59 min 27 s
Bit rate: 36 b/s
Frame rate: 0.166 FPS
Count of elements: 591
Stream size: 15.9 KiB (0%)
Language: Portuguese
Default: No
Forced: No

Text #31
ID: 33
Format: UTF-8
Codec ID: S_TEXT/UTF8
Codec ID/Info: UTF-8 Plain Text
Duration: 59 min 27 s
Bit rate: 35 b/s
Frame rate: 0.152 FPS
Count of elements: 541
Stream size: 15.6 KiB (0%)
Title: Brazilian
Language: Portuguese (BR)
Default: No
Forced: No

Text #32
ID: 34
Format: UTF-8
Codec ID: S_TEXT/UTF8
Codec ID/Info: UTF-8 Plain Text
Duration: 59 min 27 s
Bit rate: 57 b/s
Frame rate: 0.168 FPS
Count of elements: 600
Stream size: 24.9 KiB (0%)
Language: Russian
Default: No
Forced: No

Text #33
ID: 35
Format: UTF-8
Codec ID: S_TEXT/UTF8
Codec ID/Info: UTF-8 Plain Text
Duration: 59 min 27 s
Bit rate: 34 b/s
Frame rate: 0.168 FPS
Count of elements: 599
Stream size: 15.1 KiB (0%)
Language: Slovak
Default: No
Forced: No

Text #34
ID: 36
Format: UTF-8
Codec ID: S_TEXT/UTF8
Codec ID/Info: UTF-8 Plain Text
Duration: 59 min 27 s
Bit rate: 30 b/s
Frame rate: 0.141 FPS
Count of elements: 503
Stream size: 13.1 KiB (0%)
Language: Slovenian
Default: No
Forced: No

Text #35
ID: 37
Format: UTF-8
Codec ID: S_TEXT/UTF8
Codec ID/Info: UTF-8 Plain Text
Duration: 59 min 27 s
Bit rate: 37 b/s
Frame rate: 0.165 FPS
Count of elements: 588
Stream size: 16.2 KiB (0%)
Language: Swedish
Default: No
Forced: No

Text #36
ID: 38
Format: UTF-8
Codec ID: S_TEXT/UTF8
Codec ID/Info: UTF-8 Plain Text
Duration: 59 min 27 s
Bit rate: 128 b/s
Frame rate: 0.168 FPS
Count of elements: 600
Stream size: 56.1 KiB (0%)
Language: Tamil
Default: No
Forced: No

Text #37
ID: 39
Format: UTF-8
Codec ID: S_TEXT/UTF8
Codec ID/Info: UTF-8 Plain Text
Duration: 59 min 27 s
Bit rate: 113 b/s
Frame rate: 0.168 FPS
Count of elements: 600
Stream size: 49.3 KiB (0%)
Language: Telugu
Default: No
Forced: No

Text #38
ID: 40
Format: UTF-8
Codec ID: S_TEXT/UTF8
Codec ID/Info: UTF-8 Plain Text
Duration: 59 min 27 s
Bit rate: 88 b/s
Frame rate: 0.168 FPS
Count of elements: 601
Stream size: 38.5 KiB (0%)
Language: Thai
Default: No
Forced: No

Text #39
ID: 41
Format: UTF-8
Codec ID: S_TEXT/UTF8
Codec ID/Info: UTF-8 Plain Text
Duration: 59 min 27 s
Bit rate: 37 b/s
Frame rate: 0.162 FPS
Count of elements: 578
Stream size: 16.2 KiB (0%)
Language: Turkish
Default: No
Forced: No

Text #40
ID: 42
Format: UTF-8
Codec ID: S_TEXT/UTF8
Codec ID/Info: UTF-8 Plain Text
Duration: 59 min 27 s
Bit rate: 56 b/s
Frame rate: 0.168 FPS
Count of elements: 601
Stream size: 24.8 KiB (0%)
Language: Ukrainian
Default: No
Forced: No

Text #41
ID: 43
Format: UTF-8
Codec ID: S_TEXT/UTF8
Codec ID/Info: UTF-8 Plain Text
Duration: 59 min 27 s
Bit rate: 49 b/s
Frame rate: 0.168 FPS
Count of elements: 600
Stream size: 21.4 KiB (0%)
Language: Vietnamese
Default: No
Forced: No

Text #42
ID: 44
Format: UTF-8
Codec ID: S_TEXT/UTF8
Codec ID/Info: UTF-8 Plain Text
Duration: 59 min 27 s
Bit rate: 32 b/s
Frame rate: 0.168 FPS
Count of elements: 601
Stream size: 14.3 KiB (0%)
Title: Traditional
Language: Cantonese (Hant)
Default: No
Forced: No

Menu
00:00:00.000: en:Studio Logo
00:00:08.843: en:Recap
00:01:40.310: en:Scene 01
00:08:24.476: en:Intro
00:09:17.726: en:Scene 02
00:58:42.791: en:Credits

ssl  EZTV RSS EZTV Status | EZTV API | DMCA: [email protected]