eztvx.to | eztvstatus.org
Search title:  
TV Packs only
 

Bodkin S01E07 1080p WEBRip HDR10 10Bit DDP5 1 Atmos HEVC-d3g EZTV

Episode Breakdown
Bodkin
Bodkin TV Show S01E07

Season: 1
Episode: 7
Air Date: 9 May, 2024
Download Links
     Torrent Download     Magnet Download
     Anonymous Download
Added 1 month ago by eztv (verified).
Tracker Statistics
Seeds: 8
Peers: 3
Stats generated @ 14:28 on 24th Jun 2024
Torrent Info
Torrent File: Bodkin S01E07 1080p WEBRip HDR10 10Bit DDP5 1 Atmos HEVC-d3g[EZTVx.to].mkv
Torrent Hash: F87CFD513AFDEE47F7650ADCB3E78DB21B80A110
Filesize: 1.65 GB
Released: 20th May 2024

File Format: MKV (Matroska)
Resolution: 1920x1080 px
Aspect Ratio: 16:9
Alternate Releases S L
Bodkin S01E07 WEBRip x264-XEN0N 0 2
Bodkin S01E07 XviD-AFG 0 1
Bodkin S01E07 1080p HEVC x265-MeGusta 21 3

Bodkin S01E07 - Empty Your Pockets

Summary:

The Samhain festival opens old wounds amid hidden threats. As their pursuit of the truth comes to an end, Dove, Gilbert and Emmy embrace new beginnings.



Bodkin S01E07 1080p WEBRip HDR10 10Bit DDP5 1 Atmos HEVC-d3g EZTV
Bodkin S1E7 Screenshot


General
Unique ID: 222726055262596340708766367521459146906 (0xA78F7A5921D1EF2DBBDA55F9ED08109A)
Complete name: Bodkin S01E07 1080p WEBRip HDR10 10Bit DDP5 1 Atmos HEVC-d3g.mkv
Format: Matroska
Format version: Version 2
File size: 1.65 GiB
Duration: 55 min 31 s
Overall bit rate: 4 260 kb/s
Frame rate: 24.000 FPS
Movie name: Bodkin.S01E07.1080p.WEBRip.HDR10.10Bit.DDP5.1.Atmos.HEVC-d3g
Encoded date: 2024-05-18 21:08:50 UTC
Writing application: DVDFab 12.1.1.5
Writing library: libebml v1.4.2 + libmatroska v1.6.3

Video
ID: 1
Format: HEVC
Format/Info: High Efficiency Video Coding
Format profile: Main [email protected]@High
HDR format: SMPTE ST 2086, HDR10 compatible
Codec ID: V_MPEGH/ISO/HEVC
Duration: 55 min 31 s
Bit rate: 3 437 kb/s
Width: 1 920 pixels
Height: 1 080 pixels
Display aspect ratio: 16:9
Frame rate mode: Constant
Frame rate: 24.000 FPS
Color space: YUV
Chroma subsampling: 4:2:0 (Type 2)
Bit depth: 10 bits
Bits/(Pixel*Frame): 0.069
Stream size: 1.33 GiB (81%)
Default: Yes
Forced: No
Color range: Limited
Color primaries: BT.2020
Transfer characteristics: PQ
Matrix coefficients: BT.2020 non-constant
Mastering display color primaries: Display P3
Mastering display luminance: min: 0.0001 cd/m2, max: 1000 cd/m2
Maximum Content Light Level: 103 cd/m2
Maximum Frame-Average Light Level: 40 cd/m2

Audio
ID: 2
Format: E-AC-3 JOC
Format/Info: Enhanced AC-3 with Joint Object Coding
Commercial name: Dolby Digital Plus with Dolby Atmos
Codec ID: A_EAC3
Duration: 55 min 31 s
Bit rate mode: Constant
Bit rate: 768 kb/s
Channel(s): 6 channels
Channel layout: L R C LFE Ls Rs
Sampling rate: 48.0 kHz
Frame rate: 31.250 FPS (1536 SPF)
Compression mode: Lossy
Stream size: 305 MiB (18%)
Language: English
Service kind: Complete Main
Default: Yes
Forced: No
Complexity index: 16
Number of dynamic objects: 15
Bed channel count: 1 channel
Bed channel configuration: LFE

Text
ID: 3
Format: PGS
Codec ID: S_HDMV/PGS
Codec ID/Info: Picture based subtitle format used on BDs/HD-DVDs
Duration: 53 min 49 s
Bit rate: 54.2 kb/s
Frame rate: 0.642 FPS
Count of elements: 2074
Stream size: 20.9 MiB (1%)
Language: English
Default: Yes
Forced: No

Menu
00:00:00.000: en:Chapter 1
00:51:49.000: en:Chapter 2

ssl  EZTV RSS EZTV Status | EZTV API | DMCA: [email protected]