eztvx.to | eztvstatus.org
Search title:  
TV Packs only
 

Bodkin S01E02 1080p WEBRip HDR10 10Bit DDP5 1 Atmos HEVC-d3g EZTV

Episode Breakdown
Bodkin
Bodkin TV Show S01E02

Season: 1
Episode: 2
Air Date: 9 May, 2024
Download Links
     Torrent Download     Magnet Download
     Anonymous Download
Added 1 month ago by eztv (verified).
Tracker Statistics
Seeds: 10
Peers: 4
Stats generated @ 15:24 on 24th Jun 2024
Torrent Info
Torrent File: Bodkin S01E02 1080p WEBRip HDR10 10Bit DDP5 1 Atmos HEVC-d3g[EZTVx.to].mkv
Torrent Hash: F8AC2AB30FADBC9B093E852E0CBC40E0631DEEB5
Filesize: 1.41 GB
Released: 20th May 2024

File Format: MKV (Matroska)
Resolution: 1920x1080 px
Aspect Ratio: 16:9
Alternate Releases S L
Bodkin S01E02 Who We Are 1080p NF WEB-DL DDP5 1 Atmos H 264-FLUX 5 3
Bodkin S01E02 XviD-AFG 11 0
Bodkin S01E02 1080p HEVC x265-MeGusta 21 2
Bodkin S01E02 1080p WEB H264-NHTFS 22 4

Bodkin S01E02 - Who We Are

Summary:

Dove and Gilbert clash over their differing interview approaches — but as they inch closer to answers, their personal struggles add to their problems.



Bodkin S01E02 1080p WEBRip HDR10 10Bit DDP5 1 Atmos HEVC-d3g EZTV
Bodkin S1E2 Screenshot


General
Unique ID: 225835251013315508420350050946248278710 (0xA9E64988B90D160FA390E3B728FB02B6)
Complete name: Bodkin S01E02 1080p WEBRip HDR10 10Bit DDP5 1 Atmos HEVC-d3g.mkv
Format: Matroska
Format version: Version 2
File size: 1.41 GiB
Duration: 44 min 8 s
Overall bit rate: 4 570 kb/s
Frame rate: 24.000 FPS
Movie name: Bodkin.S01E02.1080p.WEBRip.HDR10.10Bit.DDP5.1.Atmos.HEVC-d3g
Encoded date: 2024-05-18 20:56:01 UTC
Writing application: DVDFab 12.1.1.5
Writing library: libebml v1.4.2 + libmatroska v1.6.3

Video
ID: 1
Format: HEVC
Format/Info: High Efficiency Video Coding
Format profile: Main [email protected]@High
HDR format: SMPTE ST 2086, HDR10 compatible
Codec ID: V_MPEGH/ISO/HEVC
Duration: 44 min 8 s
Bit rate: 3 741 kb/s
Width: 1 920 pixels
Height: 1 080 pixels
Display aspect ratio: 16:9
Frame rate mode: Constant
Frame rate: 24.000 FPS
Color space: YUV
Chroma subsampling: 4:2:0 (Type 2)
Bit depth: 10 bits
Bits/(Pixel*Frame): 0.075
Stream size: 1.15 GiB (82%)
Default: Yes
Forced: No
Color range: Limited
Color primaries: BT.2020
Transfer characteristics: PQ
Matrix coefficients: BT.2020 non-constant
Mastering display color primaries: Display P3
Mastering display luminance: min: 0.0001 cd/m2, max: 1000 cd/m2
Maximum Content Light Level: 103 cd/m2
Maximum Frame-Average Light Level: 81 cd/m2

Audio
ID: 2
Format: E-AC-3 JOC
Format/Info: Enhanced AC-3 with Joint Object Coding
Commercial name: Dolby Digital Plus with Dolby Atmos
Codec ID: A_EAC3
Duration: 44 min 8 s
Bit rate mode: Constant
Bit rate: 768 kb/s
Channel(s): 6 channels
Channel layout: L R C LFE Ls Rs
Sampling rate: 48.0 kHz
Frame rate: 31.250 FPS (1536 SPF)
Compression mode: Lossy
Stream size: 243 MiB (17%)
Language: English
Service kind: Complete Main
Default: Yes
Forced: No
Complexity index: 16
Number of dynamic objects: 15
Bed channel count: 1 channel
Bed channel configuration: LFE

Text
ID: 3
Format: PGS
Codec ID: S_HDMV/PGS
Codec ID/Info: Picture based subtitle format used on BDs/HD-DVDs
Duration: 42 min 28 s
Bit rate: 60.7 kb/s
Frame rate: 0.675 FPS
Count of elements: 1720
Stream size: 18.4 MiB (1%)
Language: English
Default: Yes
Forced: No

Menu
00:00:00.000: en:Chapter 1
00:40:26.000: en:Chapter 2

ssl  EZTV RSS EZTV Status | EZTV API | DMCA: [email protected]