eztvx.to | eztvstatus.org
Search title:  
TV Packs only
 

Mud Madness S01E04 Alls Fair in Mud and War 1080p DSCP WEB-DL AAC2 0 H 264-playWEB EZTV

Episode Breakdown
Mud Madness
Mud Madness TV Show S01E04

Season: 1
Episode: 4
Air Date: 30 April, 2024
Download Links
     Torrent Download     Magnet Download
     Anonymous Download
Added 1 month ago by eztv (verified).
Tracker Statistics
Seeds: 0
Peers: 1
Stats generated @ 15:37 on 24th Jun 2024
Torrent Info
Torrent File: Mud Madness S01E04 Alls Fair in Mud and War 1080p DSCP WEB-DL AAC2 0 H 264-playWEB[EZTVx.to].mkv
Torrent Hash: 2BA410C31C36CA7C1A251464E0BBB9E2B96354BA
Filesize: 2.91 GB
Released: 19th May 2024

File Format: MKV (Matroska)
Resolution: 1920x1080 px
Aspect Ratio: 16:9
Alternate Releases S L
Mud Madness S01E04 1080p WEB h264-FREQUENCY 0 2
Mud Madness S01E04 XviD-AFG 0 1
Mud Madness S01E04 1080p HEVC x265-MeGusta 1 3
Mud Madness S01E04 Alls Fair in Mud and War 720p MAX WEB-DL DD 2 0 H 264-playWEB 0 0

Mud Madness S01E04 - All's Fair in Mud and War

Summary:
Mud Madness S01E04 Alls Fair in Mud and War 1080p DSCP WEB-DL AAC2 0 H 264-playWEB EZTV
Mud Madness S1E4 Screenshot


General
Unique ID: 245302346011532732593498832466781603696 (0xB88B836BA3D2640F6659DC92AD170770)
Complete name: Mud Madness S01E04 Alls Fair in Mud and War 1080p DSCP WEB-DL AAC2 0 H 264-playWEB.mkv
Format: Matroska
Format version: Version 4
File size: 2.91 GiB
Duration: 44 min 1 s
Overall bit rate: 9 463 kb/s
Frame rate: 25.000 FPS
Writing application: mkvmerge v84.0 ('Sleeper') 64-bit
Writing library: libebml v1.4.5 + libmatroska v1.7.1

Video
ID: 1
Format: AVC
Format/Info: Advanced Video Codec
Format profile: Main@L4
Format settings: CABAC / 4 Ref Frames
Format settings, CABAC: Yes
Format settings, Reference frames: 4 frames
Codec ID: V_MPEG4/ISO/AVC
Duration: 44 min 1 s
Bit rate: 9 336 kb/s
Width: 1 920 pixels
Height: 1 080 pixels
Display aspect ratio: 16:9
Frame rate mode: Constant
Frame rate: 25.000 FPS
Color space: YUV
Chroma subsampling: 4:2:0
Bit depth: 8 bits
Scan type: Progressive
Bits/(Pixel*Frame): 0.180
Stream size: 2.87 GiB (99%)
Default: Yes
Forced: No

Audio
ID: 2
Format: AAC LC
Format/Info: Advanced Audio Codec Low Complexity
Codec ID: A_AAC-2
Duration: 44 min 1 s
Bit rate: 125 kb/s
Channel(s): 2 channels
Channel layout: L R
Sampling rate: 48.0 kHz
Frame rate: 46.875 FPS (1024 SPF)
Compression mode: Lossy
Stream size: 39.5 MiB (1%)
Language: English
Default: Yes
Forced: No

ssl  EZTV RSS EZTV Status | EZTV API | DMCA: [email protected]