eztvx.to | eztvstatus.org
Search title:  
TV Packs only
 

Mud Madness S01E06 Shut Up and Send It 1080p DSCP WEB-DL AAC2 0 H 264-playWEB EZTV

Episode Breakdown
Mud Madness
Mud Madness TV Show S01E06

Season: 1
Episode: 6
Air Date: 14 May, 2024
Download Links
     Torrent Download     Magnet Download
     Anonymous Download
Added 1 month ago by eztv (verified).
Tracker Statistics
Seeds: 0
Peers: 1
Stats generated @ 16:10 on 24th Jun 2024
Torrent Info
Torrent File: Mud Madness S01E06 Shut Up and Send It 1080p DSCP WEB-DL AAC2 0 H 264-playWEB[EZTVx.to].mkv
Torrent Hash: D7ACA9394497C86D51156AF905F91A294EF2EB0E
Filesize: 2.98 GB
Released: 19th May 2024

File Format: MKV (Matroska)
Resolution: 1920x1080 px
Aspect Ratio: 16:9
Alternate Releases S L
Mud Madness S01E06 1080p WEB h264-EDITH 2 1
Mud Madness S01E06 XviD-AFG 0 1
Mud Madness S01E06 Shut Up and Send It 720p MAX WEB-DL DD 2 0 H 264-playWEB 0 2

Mud Madness S01E06 - Shut Up and Send It

Summary:
Mud Madness S01E06 Shut Up and Send It 1080p DSCP WEB-DL AAC2 0 H 264-playWEB EZTV
Mud Madness S1E6 Screenshot


General
Unique ID: 3911296419958298376945066899068627973 (0x2F149CD59D991C6373BDF199F172C05)
Complete name: Mud Madness S01E06 Shut Up and Send It 1080p DSCP WEB-DL AAC2 0 H 264-playWEB.mkv
Format: Matroska
Format version: Version 4
File size: 2.98 GiB
Duration: 44 min 13 s
Overall bit rate: 9 661 kb/s
Frame rate: 25.000 FPS
Writing application: mkvmerge v84.0 ('Sleeper') 64-bit
Writing library: libebml v1.4.5 + libmatroska v1.7.1

Video
ID: 1
Format: AVC
Format/Info: Advanced Video Codec
Format profile: Main@L4
Format settings: CABAC / 4 Ref Frames
Format settings, CABAC: Yes
Format settings, Reference frames: 4 frames
Codec ID: V_MPEG4/ISO/AVC
Duration: 44 min 13 s
Bit rate: 9 533 kb/s
Width: 1 920 pixels
Height: 1 080 pixels
Display aspect ratio: 16:9
Frame rate mode: Constant
Frame rate: 25.000 FPS
Color space: YUV
Chroma subsampling: 4:2:0
Bit depth: 8 bits
Scan type: Progressive
Bits/(Pixel*Frame): 0.184
Stream size: 2.94 GiB (99%)
Default: Yes
Forced: No

Audio
ID: 2
Format: AAC LC
Format/Info: Advanced Audio Codec Low Complexity
Codec ID: A_AAC-2
Duration: 44 min 13 s
Bit rate: 125 kb/s
Channel(s): 2 channels
Channel layout: L R
Sampling rate: 48.0 kHz
Frame rate: 46.875 FPS (1024 SPF)
Compression mode: Lossy
Stream size: 39.7 MiB (1%)
Language: English
Default: Yes
Forced: No

ssl  EZTV RSS EZTV Status | EZTV API | DMCA: [email protected]