eztvx.to | eztvstatus.org
Search title:  
TV Packs only
 

Young Sheldon S07E12 A New Home and a Traditional Texas Torture 1080p AMZN WEB-DL DDP5 1 H 264-FLUX EZTV

Episode Breakdown
Young Sheldon
Young Sheldon TV Show S07E12

Season: 7
Episode: 12
Air Date: 9 May, 2024
Download Links
     Torrent Download     Magnet Download
     Anonymous Download
Added 28 days ago by eztv (verified).
Tracker Statistics
Seeds: 53
Peers: 19
Stats generated @ 10:37 on 15th Jun 2024
Torrent Info
Torrent File: Young Sheldon S07E12 A New Home and a Traditional Texas Torture 1080p AMZN WEB-DL DDP5 1 H 264-FLUX[EZTVx.to].mkv
Torrent Hash: D467B86CEAAEF4560E59ACF4372D73519A233A4F
Filesize: 1.30 GB
Released: 17th May 2024

File Format: MKV (Matroska)
Resolution: 1920x1080 px
Aspect Ratio: 16:9
Alternate Releases S L
Young Sheldon S07E12 720p HDTV x264-SYNCOPY 337 53
Young Sheldon S07E12 1080p WEB H264-SuccessfulCrab 162 13
Young Sheldon S07E12 1080p HEVC x265-MeGusta 98 23
Young Sheldon S07E12 720p x264-FENiX 19 5
Young Sheldon S07E12 720p x265-T0PAZ 33 4
Young Sheldon S07E12 A New Home and a Traditional Texas Torture 720p HMAX WEB-DL DD5 1 H 264-playWEB 36 9

Young Sheldon S07E12 - A New Home and a Traditional Texas Torture

Summary:

George Sr. gets an exciting job offer, and Sheldon prepares for his move to California.



Young Sheldon S07E12 A New Home and a Traditional Texas Torture 1080p AMZN WEB-DL DDP5 1 H 264-FLUX EZTV
Young Sheldon S7E12 Screenshot


General
Unique ID: 206183164227812861986074298056753134445 (0x9B1D6ED92F73BF1B41A34CF43B8DBB6D)
Complete name: Young Sheldon S07E12 A New Home and a Traditional Texas Torture 1080p AMZN WEB-DL DDP5 1 H 264-FLUX.mkv
Format: Matroska
Format version: Version 4
File size: 1.30 GiB
Duration: 19 min 49 s
Overall bit rate: 9 360 kb/s
Frame rate: 23.976 FPS
Writing application: mkvmerge v83.0 ('Circle Of Friends') 64-bit
Writing library: libebml v1.4.5 + libmatroska v1.7.1

Video
ID: 1
Format: AVC
Format/Info: Advanced Video Codec
Format profile: High@L4
Format settings: CABAC / 4 Ref Frames
Format settings, CABAC: Yes
Format settings, Reference frames: 4 frames
Codec ID: V_MPEG4/ISO/AVC
Duration: 19 min 49 s
Bit rate mode: Constant
Bit rate: 8 718 kb/s
Nominal bit rate: 10 000 kb/s
Width: 1 920 pixels
Height: 1 080 pixels
Display aspect ratio: 16:9
Frame rate mode: Constant
Frame rate: 23.976 (24000/1001) FPS
Color space: YUV
Chroma subsampling: 4:2:0
Bit depth: 8 bits
Scan type: Progressive
Bits/(Pixel*Frame): 0.175
Stream size: 1.21 GiB (93%)
Language: English (US)
Default: Yes
Forced: No
Color range: Limited
Color primaries: BT.709
Transfer characteristics: BT.709
Matrix coefficients: BT.709

Audio
ID: 2
Format: E-AC-3
Format/Info: Enhanced AC-3
Commercial name: Dolby Digital Plus
Codec ID: A_EAC3
Duration: 19 min 49 s
Bit rate mode: Constant
Bit rate: 640 kb/s
Channel(s): 6 channels
Channel layout: L R C LFE Ls Rs
Sampling rate: 48.0 kHz
Frame rate: 31.250 FPS (1536 SPF)
Compression mode: Lossy
Stream size: 90.8 MiB (7%)
Language: English
Service kind: Complete Main
Default: Yes
Forced: No

Text #1
ID: 3
Format: UTF-8
Codec ID: S_TEXT/UTF8
Codec ID/Info: UTF-8 Plain Text
Duration: 18 min 45 s
Bit rate: 114 b/s
Frame rate: 0.451 FPS
Count of elements: 508
Stream size: 15.7 KiB (0%)
Language: English (US)
Default: No
Forced: No

Text #2
ID: 4
Format: UTF-8
Codec ID: S_TEXT/UTF8
Codec ID/Info: UTF-8 Plain Text
Duration: 18 min 45 s
Bit rate: 117 b/s
Frame rate: 0.463 FPS
Count of elements: 521
Stream size: 16.1 KiB (0%)
Title: SDH
Language: English (US)
Default: No
Forced: No

Menu
00:00:00.000: en:Scene 1
00:01:23.000: en:Intro
00:01:40.000: en:Scene 2
00:19:20.000: en:End Credits

ssl  EZTV RSS EZTV Status | EZTV API | DMCA: [email protected]