eztvx.to | eztvstatus.org
Search title:  
TV Packs only
 

My Sibling s Romance S01E11 2024 1080p Viu WEB-DL H264 AAC-ADWeb EZTV

Episode Breakdown
My Sibling's Romance
My Sibling's Romance TV Show S01E11

Season: 1
Episode: 11
Air Date: 10 May, 2024
Download Links
     Torrent Download     Magnet Download
     Anonymous Download
Added 1 month ago by eztv (verified).
Tracker Statistics
Seeds: 0
Peers: 4
Stats generated @ 14:41 on 24th Jun 2024
Torrent Info
Torrent File: My.Sibling.s.Romance.S01E11.2024.1080p.Viu.WEB-DL.H264.AAC-ADWeb[EZTVx.to].mkv
Torrent Hash: 829DD7B5687FC44D8903510FEE139E4D15D53808
Filesize: 2.29 GB
Released: 17th May 2024

File Format: MKV (Matroska)
Resolution: 1920x1080 px
Aspect Ratio: 16:9

My Sibling's Romance S01E11 - The Siblings' Room

Summary:


My Sibling s Romance S01E11 2024 1080p Viu WEB-DL H264 AAC-ADWeb EZTV
My Sibling's Romance S1E11 Screenshot


General
Unique ID: 201522309335007100559026788729277080367 (0x979BC8F5D3EFE68FC11C1BB0CD67632F)
Complete name: My.Sibling.s.Romance.S01E11.2024.1080p.Viu.WEB-DL.H264.AAC-ADWeb.mkv
Format: Matroska
Format version: Version 4
File size: 2.29 GiB
Duration: 2 h 15 min
Overall bit rate mode: Variable
Overall bit rate: 2 415 kb/s
Frame rate: 29.970 FPS
Encoded date: 2024-05-16 19:27:08 UTC
Writing application: mkvmerge v71.1.0 ('Fortitude') 64-bit
Writing library: libebml v1.4.4 + libmatroska v1.7.1
Muxer: ADWeb

Video
ID: 1
Format: AVC
Format/Info: Advanced Video Codec
Format profile: [email protected]
Format settings: CABAC / 4 Ref Frames
Format settings, CABAC: Yes
Format settings, Reference frames: 4 frames
Codec ID: V_MPEG4/ISO/AVC
Duration: 2 h 15 min
Bit rate mode: Variable
Bit rate: 2 316 kb/s
Maximum bit rate: 4 500 kb/s
Width: 1 920 pixels
Height: 1 080 pixels
Display aspect ratio: 16:9
Frame rate mode: Constant
Frame rate: 29.970 (30000/1001) FPS
Original frame rate: 29.970 (29970/1000) FPS
Color space: YUV
Chroma subsampling: 4:2:0
Bit depth: 8 bits
Scan type: Progressive
Bits/(Pixel*Frame): 0.037
Stream size: 2.19 GiB (96%)
Writing library: VOLO1.4.1
Language: Korean
Default: Yes
Forced: No

Audio
ID: 2
Format: AAC LC
Format/Info: Advanced Audio Codec Low Complexity
Codec ID: A_AAC-2
Duration: 2 h 15 min
Bit rate: 96.0 kb/s
Channel(s): 2 channels
Channel layout: L R
Sampling rate: 48.0 kHz
Frame rate: 46.875 FPS (1024 SPF)
Compression mode: Lossy
Delay relative to video: -42 ms
Stream size: 93.0 MiB (4%)
Language: Korean
Default: Yes
Forced: No

Text #1
ID: 3
Format: UTF-8
Codec ID: S_TEXT/UTF8
Codec ID/Info: UTF-8 Plain Text
Duration: 2 h 15 min
Bit rate: 66 b/s
Frame rate: 0.339 FPS
Count of elements: 2756
Stream size: 65.6 KiB (0%)
Title: Chinese Simplified
Language: Chinese (Simplified)
Default: Yes
Forced: No

Text #2
ID: 4
Format: UTF-8
Codec ID: S_TEXT/UTF8
Codec ID/Info: UTF-8 Plain Text
Duration: 2 h 15 min
Bit rate: 67 b/s
Frame rate: 0.343 FPS
Count of elements: 2788
Stream size: 67.1 KiB (0%)
Title: Chinese Traditional
Language: Chinese (Traditional)
Default: No
Forced: No
ssl  EZTV RSS EZTV Status | EZTV API | DMCA: [email protected]