eztvx.to | eztvstatus.org
Search title:  
TV Packs only
 

Young Sheldon S07E12 A New Home and a Traditional Texas Torture 720p HMAX WEB-DL DD5 1 H 264-playWEB EZTV

Episode Breakdown
Young Sheldon
Young Sheldon TV Show S07E12

Season: 7
Episode: 12
Air Date: 9 May, 2024
Download Links
     Torrent Download     Magnet Download
     Anonymous Download
Added 12 days ago by eztv (verified).
Tracker Statistics
Seeds: 43
Peers: 6
Stats generated @ 06:22 on 28th May 2024
Torrent Info
Torrent File: Young Sheldon S07E12 A New Home and a Traditional Texas Torture 720p HMAX WEB-DL DD5 1 H 264-playWEB[EZTVx.to].mkv
Torrent Hash: 0CB2A160F9196353A14DB3B0EAD221E75DA4962C
Filesize: 515 MB
Released: 16th May 2024

File Format: MKV (Matroska)
Resolution: 1280x720 px
Aspect Ratio: 16:9
Alternate Releases S L
Young Sheldon S07E12 720p HDTV x264-SYNCOPY 486 96
Young Sheldon S07E12 1080p WEB H264-SuccessfulCrab 231 30
Young Sheldon S07E12 1080p HEVC x265-MeGusta 150 57
Young Sheldon S07E12 720p x264-FENiX 39 5
Young Sheldon S07E12 720p x265-T0PAZ 52 2
Young Sheldon S07E12 A New Home and a Traditional Texas Torture 1080p AMZN WEB-DL DDP5 1 H 264-FLUX 46 17

Young Sheldon S07E12 - A New Home and a Traditional Texas Torture

Summary:

George Sr. gets an exciting job offer, and Sheldon prepares for his move to California.



Young Sheldon S07E12 A New Home and a Traditional Texas Torture 720p HMAX WEB-DL DD5 1 H 264-playWEB EZTV
Young Sheldon S7E12 Screenshot


General
Unique ID: 333156678969595657705864464024703899585 (0xFAA3A475A35A877145287E28779897C1)
Complete name: Young Sheldon S07E12 A New Home and a Traditional Texas Torture 720p HMAX WEB-DL DD5 1 H 264-playWEB.mkv
Format: Matroska
Format version: Version 4
File size: 515 MiB
Duration: 19 min 1 s
Overall bit rate mode: Variable
Overall bit rate: 3 787 kb/s
Frame rate: 25.000 FPS
Writing application: mkvmerge v84.0 ('Sleeper') 64-bit
Writing library: libebml v1.4.5 + libmatroska v1.7.1

Video
ID: 1
Format: AVC
Format/Info: Advanced Video Codec
Format profile: [email protected]
Format settings: CABAC / 4 Ref Frames
Format settings, CABAC: Yes
Format settings, Reference frames: 4 frames
Codec ID: V_MPEG4/ISO/AVC
Duration: 19 min 1 s
Bit rate mode: Variable
Bit rate: 3 400 kb/s
Maximum bit rate: 5 100 kb/s
Width: 1 280 pixels
Height: 720 pixels
Display aspect ratio: 16:9
Frame rate mode: Constant
Frame rate: 25.000 FPS
Color space: YUV
Chroma subsampling: 4:2:0
Bit depth: 8 bits
Scan type: Progressive
Bits/(Pixel*Frame): 0.148
Stream size: 462 MiB (90%)
Writing library: x264 core 157 r2965 861cec4
Encoding settings: cabac=1 / ref=4 / deblock=1:0:0 / analyse=0x1:0x111 / me=hex / subme=7 / psy=1 / psy_rd=1.00:0.00 / mixed_ref=1 / me_range=16 / chroma_me=1 / trellis=1 / 8x8dct=0 / cqm=0 / deadzone=21,11 / fast_pskip=1 / chroma_qp_offset=-2 / threads=22 / lookahead_threads=3 / sliced_threads=0 / nr=0 / decimate=1 / interlaced=0 / bluray_compat=0 / constrained_intra=0 / bframes=3 / b_pyramid=2 / b_adapt=1 / b_bias=0 / direct=1 / weightb=1 / open_gop=0 / weightp=2 / keyint=100 / keyint_min=100 / scenecut=40 / intra_refresh=0 / rc_lookahead=40 / rc=2pass / mbtree=1 / bitrate=3400 / ratetol=1.0 / qcomp=0.60 / qpmin=0 / qpmax=69 / qpstep=4 / cplxblur=20.0 / qblur=0.5 / vbv_maxrate=5100 / vbv_bufsize=2550 / nal_hrd=vbr / filler=0 / ip_ratio=1.40 / aq=1:1.00
Default: Yes
Forced: No
Color range: Limited
Color primaries: BT.709
Transfer characteristics: BT.709
Matrix coefficients: BT.709

Audio
ID: 2
Format: AC-3
Format/Info: Audio Coding 3
Commercial name: Dolby Digital
Codec ID: A_AC3
Duration: 19 min 0 s
Bit rate mode: Constant
Bit rate: 384 kb/s
Channel(s): 6 channels
Channel layout: L R C LFE Ls Rs
Sampling rate: 48.0 kHz
Frame rate: 31.250 FPS (1536 SPF)
Compression mode: Lossy
Stream size: 52.2 MiB (10%)
Language: English
Service kind: Complete Main
Default: Yes
Forced: No

Text #1
ID: 3
Format: UTF-8
Codec ID: S_TEXT/UTF8
Codec ID/Info: UTF-8 Plain Text
Duration: 18 min 41 s
Bit rate: 166 b/s
Frame rate: 0.327 FPS
Count of elements: 367
Stream size: 22.7 KiB (0%)
Language: Bulgarian
Default: No
Forced: No

Text #2
ID: 4
Format: UTF-8
Codec ID: S_TEXT/UTF8
Codec ID/Info: UTF-8 Plain Text
Duration: 18 min 39 s
Bit rate: 108 b/s
Frame rate: 0.335 FPS
Count of elements: 375
Stream size: 14.8 KiB (0%)
Language: Czech
Default: No
Forced: No

Text #3
ID: 5
Format: UTF-8
Codec ID: S_TEXT/UTF8
Codec ID/Info: UTF-8 Plain Text
Duration: 18 min 36 s
Bit rate: 93 b/s
Frame rate: 0.278 FPS
Count of elements: 310
Stream size: 12.7 KiB (0%)
Language: Danish
Default: No
Forced: No

Text #4
ID: 6
Format: UTF-8
Codec ID: S_TEXT/UTF8
Codec ID/Info: UTF-8 Plain Text
Duration: 18 min 1 s
Bit rate: 116 b/s
Frame rate: 0.351 FPS
Count of elements: 380
Stream size: 15.4 KiB (0%)
Language: English
Default: No
Forced: No

Text #5
ID: 7
Format: UTF-8
Codec ID: S_TEXT/UTF8
Codec ID/Info: UTF-8 Plain Text
Duration: 18 min 0 s
Bit rate: 113 b/s
Frame rate: 0.334 FPS
Count of elements: 361
Stream size: 15.0 KiB (0%)
Title: European
Language: Spanish
Default: No
Forced: No

Text #6
ID: 8
Format: UTF-8
Codec ID: S_TEXT/UTF8
Codec ID/Info: UTF-8 Plain Text
Duration: 18 min 36 s
Bit rate: 95 b/s
Frame rate: 0.273 FPS
Count of elements: 305
Stream size: 13.0 KiB (0%)
Language: Finnish
Default: No
Forced: No

Text #7
ID: 9
Format: UTF-8
Codec ID: S_TEXT/UTF8
Codec ID/Info: UTF-8 Plain Text
Duration: 18 min 35 s
Bit rate: 96 b/s
Frame rate: 0.238 FPS
Count of elements: 265
Stream size: 13.1 KiB (0%)
Language: Croatian
Default: No
Forced: No

Text #8
ID: 10
Format: UTF-8
Codec ID: S_TEXT/UTF8
Codec ID/Info: UTF-8 Plain Text
Duration: 18 min 37 s
Bit rate: 100 b/s
Frame rate: 0.339 FPS
Count of elements: 379
Stream size: 13.7 KiB (0%)
Language: Hungarian
Default: No
Forced: No

Text #9
ID: 11
Format: UTF-8
Codec ID: S_TEXT/UTF8
Codec ID/Info: UTF-8 Plain Text
Duration: 18 min 35 s
Bit rate: 160 b/s
Frame rate: 0.238 FPS
Count of elements: 265
Stream size: 21.9 KiB (0%)
Language: Macedonian
Default: No
Forced: No

Text #10
ID: 12
Format: UTF-8
Codec ID: S_TEXT/UTF8
Codec ID/Info: UTF-8 Plain Text
Duration: 18 min 55 s
Bit rate: 113 b/s
Frame rate: 0.364 FPS
Count of elements: 413
Stream size: 15.7 KiB (0%)
Language: Dutch
Default: No
Forced: No

Text #11
ID: 13
Format: UTF-8
Codec ID: S_TEXT/UTF8
Codec ID/Info: UTF-8 Plain Text
Duration: 18 min 1 s
Bit rate: 101 b/s
Frame rate: 0.319 FPS
Count of elements: 345
Stream size: 13.4 KiB (0%)
Language: Norwegian
Default: No
Forced: No

Text #12
ID: 14
Format: UTF-8
Codec ID: S_TEXT/UTF8
Codec ID/Info: UTF-8 Plain Text
Duration: 18 min 48 s
Bit rate: 74 b/s
Frame rate: 0.338 FPS
Count of elements: 382
Stream size: 10.2 KiB (0%)
Language: Polish
Default: No
Forced: No

Text #13
ID: 15
Format: UTF-8
Codec ID: S_TEXT/UTF8
Codec ID/Info: UTF-8 Plain Text
Duration: 18 min 9 s
Bit rate: 114 b/s
Frame rate: 0.317 FPS
Count of elements: 345
Stream size: 15.3 KiB (0%)
Title: European
Language: Portuguese
Default: No
Forced: No

Text #14
ID: 16
Format: UTF-8
Codec ID: S_TEXT/UTF8
Codec ID/Info: UTF-8 Plain Text
Duration: 18 min 1 s
Bit rate: 107 b/s
Frame rate: 0.350 FPS
Count of elements: 379
Stream size: 14.2 KiB (0%)
Language: Romanian
Default: No
Forced: No

Text #15
ID: 17
Format: UTF-8
Codec ID: S_TEXT/UTF8
Codec ID/Info: UTF-8 Plain Text
Duration: 18 min 35 s
Bit rate: 92 b/s
Frame rate: 0.238 FPS
Count of elements: 265
Stream size: 12.6 KiB (0%)
Title: Slovenia
Language: Slovenian
Default: No
Forced: No

Text #16
ID: 18
Format: UTF-8
Codec ID: S_TEXT/UTF8
Codec ID/Info: UTF-8 Plain Text
Duration: 18 min 35 s
Bit rate: 94 b/s
Frame rate: 0.238 FPS
Count of elements: 265
Stream size: 12.9 KiB (0%)
Title: Latin, Serbia
Language: Serbian
Default: No
Forced: No

Text #17
ID: 19
Format: UTF-8
Codec ID: S_TEXT/UTF8
Codec ID/Info: UTF-8 Plain Text
Duration: 18 min 36 s
Bit rate: 99 b/s
Frame rate: 0.255 FPS
Count of elements: 285
Stream size: 13.6 KiB (0%)
Language: Swedish
Default: No
Forced: No

Menu
00:00:00.000: en:Chapter 1
00:01:16.640: en:Intro
00:01:32.599: en:Chapter 2
00:18:33.000: en:Credits

ssl  EZTV RSS EZTV Status | EZTV API | DMCA: [email protected]