eztvx.to | eztvstatus.org
Search title:  
TV Packs only
 

Survivor Romania S05E53 1080p WEB-DL AAC2 0 H 264-playWEB EZTV

Episode Breakdown
Survivor Romania
Survivor Romania TV Show S05E53

Season: 5
Episode: 53
Download Links
     Torrent Download     Magnet Download
     Anonymous Download
Added 12 days ago by eztv (verified).
Tracker Statistics
Seeds: 2
Peers: 2
Stats generated @ 06:28 on 28th May 2024
Torrent Info
Torrent File: Survivor Romania S05E53 1080p WEB-DL AAC2 0 H 264-playWEB[EZTVx.to].mkv
Torrent Hash: C14CF35615EDEAE99281186692DED143D18CF4D1
Filesize: 4.85 GB
Released: 16th May 2024

File Format: MKV (Matroska)
Resolution: 1920x1080 px
Aspect Ratio: 16:9

Episode Description


Survivor Romania S05E53 1080p WEB-DL AAC2 0 H 264-playWEB EZTV
Survivor Romania S5E53 Screenshot


General
Unique ID: 26186857779701196354019422901656713859 (0x13B367C553EC40FC23C2D30EB1897A83)
Complete name: Survivor Romania S05E53 1080p WEB-DL AAC2 0 H 264-playWEB.mkv
Format: Matroska
Format version: Version 4
File size: 4.85 GiB
Duration: 2 h 15 min
Overall bit rate mode: Variable
Overall bit rate: 5 126 kb/s
Frame rate: 25.000 FPS
Writing application: mkvmerge v84.0 ('Sleeper') 64-bit
Writing library: libebml v1.4.5 + libmatroska v1.7.1 / Lavf59.0.100

Video
ID: 1
Format: AVC
Format/Info: Advanced Video Codec
Format profile: Main@L4
Format settings: CABAC / 4 Ref Frames
Format settings, CABAC: Yes
Format settings, Reference frames: 4 frames
Codec ID: V_MPEG4/ISO/AVC
Duration: 2 h 15 min
Bit rate mode: Variable
Bit rate: 5 000 kb/s
Width: 1 920 pixels
Height: 1 080 pixels
Display aspect ratio: 16:9
Frame rate mode: Constant
Frame rate: 25.000 FPS
Color space: YUV
Chroma subsampling: 4:2:0
Bit depth: 8 bits
Scan type: Progressive
Bits/(Pixel*Frame): 0.096
Stream size: 4.72 GiB (97%)
Default: Yes
Forced: No
Color range: Limited
Color primaries: BT.709
Transfer characteristics: BT.709

Audio
ID: 2
Format: AAC LC
Format/Info: Advanced Audio Codec Low Complexity
Codec ID: A_AAC-2
Duration: 2 h 15 min
Bit rate: 128 kb/s
Channel(s): 2 channels
Channel layout: L R
Sampling rate: 44.1 kHz
Frame rate: 43.066 FPS (1024 SPF)
Compression mode: Lossy
Stream size: 124 MiB (2%)
Language: Romanian
Default: Yes
Forced: No

ssl  EZTV RSS EZTV Status | EZTV API | DMCA: [email protected]