eztvx.to | eztvstatus.org
Search title:  
TV Packs only
 

Dimension 20 S21E19 Ragenarok Part 1 1080p WEB-DL AAC2 0 x264-BFM mkv EZTV

Episode Breakdown
Dimension 20
Dimension 20 TV Show S21E19

Season: 21
Episode: 19
Air Date: 15 May, 2024
Download Links
     Torrent Download     Magnet Download
     Anonymous Download
Added 12 days ago by eztv (verified).
Tracker Statistics
Seeds: 37
Peers: 3
Stats generated @ 06:57 on 28th May 2024
Torrent Info
Torrent File: Dimension.20.S21E19.Ragenarok.Part.1.1080p.WEB-DL.AAC2.0.x264-BFM[EZTVx.to].mkv
Torrent Hash: 714B13DB30E2930EB666BBCACC3717EBEBAC1708
Filesize: 4.43 GB
Released: 16th May 2024

File Format: MKV (Matroska)
Resolution: 1920x1080 px
Aspect Ratio: 16:9
Alternate Releases S L
Dimension 20 S21E19 Ragenarok Part 1 720p WEB-DL AAC2 0 x264-BFM 29 1
Dimension 20 S21E19 Ragenarok Part 1 1080p DRPO WEB-DL Opus H 264-NTb 5 2
Dimension 20 - S21E19 - Ragenarok (Part 1) [1080p WEB-DL]-TARDIS 6 3

Dimension 20 S21E19 - Ragenarok (Part 1)

Summary:

The Bad Kids fight the creation of a new god - and try to certify election results.



Dimension 20 S21E19 Ragenarok Part 1 1080p WEB-DL AAC2 0 x264-BFM mkv EZTV
Dimension 20 S21E19 Screenshot
Dimension 20 S21E19 Ragenarok Part 1 1080p

The Bad Kids fight the creation of a new god - and try to certify election results.






Mediainfo
General
Unique ID                                : 197818957694528828551314272907918669961 (0x94D28BA096A9D2DC2B39CF6304C17889)
Complete name                            : Dimension.20.S21E19.Ragenarok.Part.1.1080p.WEB-DL.AAC2.0.x264-BFM.mkv
Format                                   : Matroska
Format version                           : Version 4
File size                                : 4.43 GiB
Duration                                 : 2 h 8 min
Overall bit rate                         : 4 941 kb/s
Frame rate                               : 23.976 FPS
Movie name                               : Ragenarok (Part 1)
Encoded date                             : 2024-05-15 23:19:09 UTC
Writing application                      : mkvmerge v83.0 ('Circle Of Friends') 64-bit
Writing library                          : libebml v1.4.5 + libmatroska v1.7.1 / Lavf60.3.100
Cover                                    : Yes
Comment                                  : https://www.dropout.tv/dimension-20-fantasy-high-junior-year/season:1/videos/ragenarok-part-1
Attachments                              : cover.jpg

Video
ID                                       : 1
Format                                   : AVC
Format/Info                              : Advanced Video Codec
Format profile                           : [email protected]
Format settings                          : CABAC / 5 Ref Frames
Format settings, CABAC                   : Yes
Format settings, Reference frames        : 5 frames
Codec ID                                 : V_MPEG4/ISO/AVC
Duration                                 : 2 h 8 min
Bit rate                                 : 4 659 kb/s
Width                                    : 1 920 pixels
Height                                   : 1 080 pixels
Display aspect ratio                     : 16:9
Frame rate mode                          : Constant
Frame rate                               : 23.976 (24000/1001) FPS
Color space                              : YUV
Chroma subsampling                       : 4:2:0
Bit depth                                : 8 bits
Scan type                                : Progressive
Bits/(Pixel*Frame)                       : 0.094
Stream size                              : 4.18 GiB (94%)
Writing library                          : x264 core 161 r3027 4121277
Encoding settings                        : cabac=1 / ref=5 / deblock=1:0:0 / analyse=0x3:0x113 / me=hex / subme=8 / psy=1 / psy_rd=1.00:0.00 / mixed_ref=1 / me_range=16 / chroma_me=1 / trellis=2 / 8x8dct=1 / cqm=0 / deadzone=21,11 / fast_pskip=1 / chroma_qp_offset=-2 / threads=34 / lookahead_threads=5 / sliced_threads=0 / nr=0 / decimate=1 / interlaced=0 / bluray_compat=0 / stitchable=1 / constrained_intra=0 / bframes=3 / b_pyramid=2 / b_adapt=2 / b_bias=0 / direct=3 / weightb=1 / open_gop=0 / weightp=2 / keyint=infinite / keyint_min=23 / scenecut=40 / intra_refresh=0 / rc_lookahead=50 / rc=crf / mbtree=1 / crf=20.0 / qcomp=0.60 / qpmin=5 / qpmax=69 / qpstep=4 / vbv_maxrate=5500 / vbv_bufsize=15000 / crf_max=0.0 / nal_hrd=none / filler=0 / ip_ratio=1.40 / aq=1:1.00
Default                                  : Yes
Forced                                   : No
Color range                              : Limited
Color primaries                          : BT.709
Transfer characteristics                 : BT.709
Matrix coefficients                      : BT.709

Audio
ID                                       : 2
Format                                   : AAC LC
Format/Info                              : Advanced Audio Codec Low Complexity
Codec ID                                 : A_AAC-2
Duration                                 : 2 h 8 min
Bit rate                                 : 279 kb/s
Channel(s)                               : 2 channels
Channel layout                           : L R
Sampling rate                            : 48.0 kHz
Frame rate                               : 46.875 FPS (1024 SPF)
Compression mode                         : Lossy
Stream size                              : 256 MiB (6%)
Language                                 : English
Default                                  : Yes
Forced                                   : No

Text
ID                                       : 3
Format                                   : UTF-8
Codec ID                                 : S_TEXT/UTF8
Codec ID/Info                            : UTF-8 Plain Text
Duration                                 : 2 h 8 min
Bit rate                                 : 130 b/s
Frame rate                               : 0.572 FPS
Count of elements                        : 4407
Stream size                              : 123 KiB (0%)
Language                                 : English
Default                                  : No
Forced                                   : No



ssl  EZTV RSS EZTV Status | EZTV API | DMCA: [email protected]