eztvx.to | eztvstatus.org
Search title:  
TV Packs only
 

Blossoms Shanghai S01E21 2023 1080p WEB-DL H264 AAC-HHWEB EZTV

Episode Breakdown
Blossoms Shanghai
Blossoms Shanghai TV Show S01E21

Season: 1
Episode: 21
Air Date: 5 January, 2024
Download Links
     Torrent Download     Magnet Download
     Anonymous Download
Added 12 days ago by eztv (verified).
Tracker Statistics
Seeds: 19
Peers: 1
Stats generated @ 06:37 on 28th May 2024
Torrent Info
Torrent File: Blossoms.Shanghai.S01E21.2023.1080p.WEB-DL.H264.AAC-HHWEB[EZTVx.to].mkv
Torrent Hash: FCAAC9240BF347C37B08EA0A3E6617024EAE7AC5
Filesize: 695 MB
Released: 15th May 2024

File Format: MKV (Matroska)
Resolution: 1920x1080 px
Aspect Ratio: 16:9

Blossoms Shanghai S01E21 - Episode 21

Summary:
Blossoms Shanghai S01E21 2023 1080p WEB-DL H264 AAC-HHWEB EZTV
Blossoms Shanghai S1E21 Screenshot


General
Unique ID: 211531493510931652580308176988857989330 (0x9F237BD742B53E3B251039E2DDE478D2)
Complete name: Blossoms.Shanghai.S01E21.2023.1080p.WEB-DL.H264.AAC-HHWEB.mkv
Format: Matroska
Format version: Version 4
File size: 695 MiB
Duration: 46 min 49 s
Overall bit rate: 2 074 kb/s
Frame rate: 25.000 FPS
Encoded date: 2024-01-05 11:48:02 UTC
Writing application: mkvmerge v76.0 ('Celebration') 64-bit
Writing library: libebml v1.4.4 + libmatroska v1.7.1 / Lavf58.32.104

Video
ID: 1
Format: AVC
Format/Info: Advanced Video Codec
Format profile: High@L4
Format settings: CABAC / 4 Ref Frames
Format settings, CABAC: Yes
Format settings, Reference frames: 4 frames
Codec ID: V_MPEG4/ISO/AVC
Duration: 46 min 49 s
Bit rate: 1 884 kb/s
Width: 1 920 pixels
Height: 1 080 pixels
Display aspect ratio: 16:9
Frame rate mode: Constant
Frame rate: 25.000 FPS
Color space: YUV
Chroma subsampling: 4:2:0
Bit depth: 8 bits
Scan type: Progressive
Bits/(Pixel*Frame): 0.036
Stream size: 631 MiB (91%)
Default: Yes
Forced: No
Color range: Limited
Color primaries: BT.709
Transfer characteristics: BT.709
Matrix coefficients: BT.709

Audio #1
ID: 2
Format: AAC LC
Format/Info: Advanced Audio Codec Low Complexity
Codec ID: A_AAC-2
Duration: 46 min 49 s
Bit rate: 93.4 kb/s
Channel(s): 2 channels
Channel layout: L R
Sampling rate: 48.0 kHz
Frame rate: 46.875 FPS (1024 SPF)
Compression mode: Lossy
Delay relative to video: -42 ms
Stream size: 31.3 MiB (5%)
Title: T F
Language: Chinese
Default: Yes
Forced: No

Audio #2
ID: 3
Format: AAC LC
Format/Info: Advanced Audio Codec Low Complexity
Codec ID: A_AAC-2
Duration: 46 min 49 s
Bit rate: 93.4 kb/s
Channel(s): 2 channels
Channel layout: L R
Sampling rate: 48.0 kHz
Frame rate: 46.875 FPS (1024 SPF)
Compression mode: Lossy
Delay relative to video: -42 ms
Stream size: 31.3 MiB (5%)
Title: F
Language: Chinese
Default: No
Forced: No
ssl  EZTV RSS EZTV Status | EZTV API | DMCA: [email protected]