eztvx.to | eztvstatus.org
Search title:  
TV Packs only
 

Die Zweiflers S01E02 Teil 2 720p ARD WEB-DL AAC2 0 H 264-NTb EZTV

Episode Breakdown
Die Zweiflers
Die Zweiflers TV Show S01E02

Season: 1
Episode: 2
Download Links
     Torrent Download     Magnet Download
     Anonymous Download
Added 30 days ago by eztv (verified).
Tracker Statistics
Seeds: 0
Peers: 1
Stats generated @ 09:02 on 15th Jun 2024
Torrent Info
Torrent File: Die.Zweiflers.S01E02.Teil.2.720p.ARD.WEB-DL.AAC2.0.H.264-NTb[EZTVx.to].mkv
Torrent Hash: E63C051D0CBF79F5F8DF1F10C8243E28D218885F
Filesize: 696 MB
Released: 15th May 2024

File Format: MKV (Matroska)
Resolution: 1280x720 px
Aspect Ratio: 16:9

Episode Description


Die Zweiflers S01E02 Teil 2 720p ARD WEB-DL AAC2 0 H 264-NTb EZTV
Die Zweiflers S1E2 Screenshot


General
Unique ID: 6199263030445416413655412145153932156 (0x4A9EF43EF352D9E9976CA403AB47B7C)
Complete name: Die.Zweiflers.S01E02.Teil.2.720p.ARD.WEB-DL.AAC2.0.H.264-NTb.mkv
Format: Matroska
Format version: Version 4
File size: 696 MiB
Duration: 45 min 15 s
Overall bit rate mode: Variable
Overall bit rate: 2 150 kb/s
Frame rate: 50.000 FPS
Encoded date: 2024-05-15 16:48:18 UTC
Writing application: mkvmerge v84.0 ('Sleeper') 64-bit
Writing library: libebml v1.4.5 + libmatroska v1.7.1

Video
ID: 1
Format: AVC
Format/Info: Advanced Video Codec
Format profile: [email protected]
Format settings: CABAC / 4 Ref Frames
Format settings, CABAC: Yes
Format settings, Reference frames: 4 frames
Codec ID: V_MPEG4/ISO/AVC
Duration: 45 min 15 s
Bit rate mode: Variable
Bit rate: 1 890 kb/s
Maximum bit rate: 3 200 kb/s
Width: 1 280 pixels
Height: 720 pixels
Display aspect ratio: 16:9
Frame rate mode: Constant
Frame rate: 50.000 FPS
Color space: YUV
Chroma subsampling: 4:2:0
Bit depth: 8 bits
Scan type: Progressive
Bits/(Pixel*Frame): 0.041
Stream size: 612 MiB (88%)
Writing library: x264 core 164 r3079 d9a19f0
Encoding settings: cabac=1 / ref=3 / deblock=1:0:0 / analyse=0x3:0x113 / me=hex / subme=7 / psy=1 / psy_rd=1.00:0.00 / mixed_ref=1 / me_range=16 / chroma_me=1 / trellis=1 / 8x8dct=1 / cqm=0 / deadzone=21,11 / fast_pskip=1 / chroma_qp_offset=-2 / threads=22 / lookahead_threads=3 / sliced_threads=0 / nr=0 / decimate=1 / interlaced=0 / bluray_compat=0 / constrained_intra=0 / bframes=3 / b_pyramid=2 / b_adapt=1 / b_bias=0 / direct=1 / weightb=1 / open_gop=0 / weightp=2 / keyint=200 / keyint_min=100 / scenecut=40 / intra_refresh=0 / rc_lookahead=50 / rc=crf / mbtree=1 / crf=21.0 / qcomp=0.60 / qpmin=0 / qpmax=69 / qpstep=4 / vbv_maxrate=3200 / vbv_bufsize=3200 / crf_max=0.0 / nal_hrd=vbr / filler=0 / ip_ratio=1.40 / aq=1:1.00
Default: Yes
Forced: No
Color range: Limited
Color primaries: BT.709
Transfer characteristics: BT.709
Matrix coefficients: BT.709

Audio
ID: 2
Format: AAC LC
Format/Info: Advanced Audio Codec Low Complexity
Codec ID: A_AAC-2
Duration: 45 min 15 s
Bit rate: 256 kb/s
Channel(s): 2 channels
Channel layout: L R
Sampling rate: 48.0 kHz
Frame rate: 46.875 FPS (1024 SPF)
Compression mode: Lossy
Stream size: 82.9 MiB (12%)
Language: German
Default: Yes
Forced: No

Text #1
ID: 3
Format: ASS
Codec ID: S_TEXT/ASS
Codec ID/Info: Advanced Sub Station Alpha
Duration: 45 min 9 s
Bit rate: 102 b/s
Frame rate: 0.218 FPS
Count of elements: 590
Compression mode: Lossless
Stream size: 34.0 KiB (0%)
Language: German
Default: No
Forced: No

Text #2
ID: 4
Format: ASS
Codec ID: S_TEXT/ASS
Codec ID/Info: Advanced Sub Station Alpha
Duration: 44 min 21 s
Bit rate: 93 b/s
Frame rate: 0.207 FPS
Count of elements: 552
Compression mode: Lossless
Stream size: 30.3 KiB (0%)
Language: English
Default: Yes
Forced: No
ssl  EZTV RSS EZTV Status | EZTV API | DMCA: [email protected]