eztvx.to | eztvstatus.org
Search title:  
TV Packs only
 

Will Trent S02E07 Have You Never Been to a Wedding 1080p DSNP WEB-DL DDP5 1 H 264-NTb EZTV

Episode Breakdown
Will Trent
Will Trent TV Show S02E07

Season: 2
Episode: 7
Air Date: 30 April, 2024
Download Links
     Torrent Download     Magnet Download
     Anonymous Download
Added 10 days ago by eztv (verified).
Tracker Statistics
Seeds: 9
Peers: 5
Stats generated @ 17:30 on 26th May 2024
Torrent Info
Torrent File: Will Trent S02E07 Have You Never Been to a Wedding 1080p DSNP WEB-DL DDP5 1 H 264-NTb[EZTVx.to].mkv
Torrent Hash: 513C06FC9925AE0F5E152DF3776458DACC72A8B6
Filesize: 1.63 GB
Released: 15th May 2024

File Format: MKV (Matroska)
Resolution: 1920x1080 px
Aspect Ratio: 16:9
Alternate Releases S L
Will Trent S02E07 XviD-AFG 31 4
Will Trent S02E07 1080p HEVC x265-MeGusta 62 13
Will Trent S02E07 1080p x265-ELiTE 13 4
Will Trent S02E07 720p x265-T0PAZ 19 3
Will Trent S02E07 Have You Never Been To A Wedding 1080p AMZN WEB-DL DDP5 1 H 264-NTb 20 5
Will Trent S02E07 Have You Never Been to a Wedding 720p DSNP WEB-DL DDP5 1 H 264-NTb 26 5
Will Trent S02E07 Have You Never Been To A Wedding 1080p WEBRip 10Bit DDP5 1 HEVC-d3g 9 9

Will Trent S02E07 - Have You Never Been to a Wedding?

Summary:

Will accompanies Faith to a wedding alongside her son Jeremy, which becomes far from celebratory when a body and a group of gunmen are found in the venue's basement. Meanwhile, Angie and Ormewood grow wary of Crystal's behavior at work.



Will Trent S02E07 Have You Never Been to a Wedding 1080p DSNP WEB-DL DDP5 1 H 264-NTb EZTV
Will Trent S2E7 Screenshot


General
Unique ID: 127180895905848044146721297875487793613 (0x5FAE264ABCDA3C1475347D739039A1CD)
Complete name: Will Trent S02E07 Have You Never Been to a Wedding 1080p DSNP WEB-DL DDP5 1 H 264-NTb.mkv
Format: Matroska
Format version: Version 4
File size: 1.63 GiB
Duration: 42 min 5 s
Overall bit rate mode: Variable
Overall bit rate: 5 528 kb/s
Frame rate: 23.976 FPS
Writing application: mkvmerge v84.0 ('Sleeper') 64-bit
Writing library: libebml v1.4.5 + libmatroska v1.7.1

Video
ID: 1
Format: AVC
Format/Info: Advanced Video Codec
Format profile: High@L4
Format settings: CABAC / 4 Ref Frames
Format settings, CABAC: Yes
Format settings, Reference frames: 4 frames
Codec ID: V_MPEG4/ISO/AVC
Duration: 42 min 5 s
Bit rate mode: Variable
Bit rate: 4 883 kb/s
Maximum bit rate: 12.7 Mb/s
Width: 1 920 pixels
Height: 1 080 pixels
Display aspect ratio: 16:9
Frame rate mode: Constant
Frame rate: 23.976 (24000/1001) FPS
Color space: YUV
Chroma subsampling: 4:2:0
Bit depth: 8 bits
Scan type: Progressive
Bits/(Pixel*Frame): 0.098
Time code of first frame: 00:00:00:0000000000
Stream size: 1.44 GiB (88%)
Default: Yes
Forced: No
Color range: Limited
Color primaries: BT.709
Transfer characteristics: BT.709
Matrix coefficients: BT.709

Audio
ID: 2
Format: E-AC-3
Format/Info: Enhanced AC-3
Commercial name: Dolby Digital Plus
Codec ID: A_EAC3
Duration: 42 min 5 s
Bit rate mode: Constant
Bit rate: 640 kb/s
Channel(s): 6 channels
Channel layout: L R C LFE Ls Rs
Sampling rate: 48.0 kHz
Frame rate: 31.250 FPS (1536 SPF)
Compression mode: Lossy
Stream size: 193 MiB (12%)
Language: English
Service kind: Complete Main
Default: Yes
Forced: No

Text #1
ID: 3
Format: UTF-8
Codec ID: S_TEXT/UTF8
Codec ID/Info: UTF-8 Plain Text
Duration: 41 min 4 s
Bit rate: 83 b/s
Frame rate: 0.306 FPS
Count of elements: 755
Stream size: 25.0 KiB (0%)
Language: English
Default: No
Forced: No

Text #2
ID: 4
Format: UTF-8
Codec ID: S_TEXT/UTF8
Codec ID/Info: UTF-8 Plain Text
Duration: 41 min 4 s
Bit rate: 90 b/s
Frame rate: 0.332 FPS
Count of elements: 819
Stream size: 27.2 KiB (0%)
Title: SDH
Language: English
Default: No
Forced: No

Text #3
ID: 5
Format: UTF-8
Codec ID: S_TEXT/UTF8
Codec ID/Info: UTF-8 Plain Text
Duration: 41 min 53 s
Bit rate: 61 b/s
Frame rate: 0.290 FPS
Count of elements: 730
Stream size: 18.8 KiB (0%)
Language: Czech
Default: No
Forced: No

Text #4
ID: 6
Format: UTF-8
Codec ID: S_TEXT/UTF8
Codec ID/Info: UTF-8 Plain Text
Duration: 41 min 53 s
Bit rate: 72 b/s
Frame rate: 0.286 FPS
Count of elements: 718
Stream size: 22.4 KiB (0%)
Language: Danish
Default: No
Forced: No

Text #5
ID: 7
Format: UTF-8
Codec ID: S_TEXT/UTF8
Codec ID/Info: UTF-8 Plain Text
Duration: 41 min 53 s
Bit rate: 76 b/s
Frame rate: 0.285 FPS
Count of elements: 716
Stream size: 23.5 KiB (0%)
Language: German
Default: No
Forced: No

Text #6
ID: 8
Format: UTF-8
Codec ID: S_TEXT/UTF8
Codec ID/Info: UTF-8 Plain Text
Duration: 41 min 53 s
Bit rate: 113 b/s
Frame rate: 0.269 FPS
Count of elements: 676
Stream size: 34.9 KiB (0%)
Language: Greek
Default: No
Forced: No

Text #7
ID: 9
Format: UTF-8
Codec ID: S_TEXT/UTF8
Codec ID/Info: UTF-8 Plain Text
Duration: 41 min 53 s
Bit rate: 68 b/s
Frame rate: 0.271 FPS
Count of elements: 681
Stream size: 21.0 KiB (0%)
Title: Spanish (Latin America)
Language: Spanish (Latin America)
Default: No
Forced: No

Text #8
ID: 10
Format: UTF-8
Codec ID: S_TEXT/UTF8
Codec ID/Info: UTF-8 Plain Text
Duration: 41 min 53 s
Bit rate: 66 b/s
Frame rate: 0.282 FPS
Count of elements: 710
Stream size: 20.3 KiB (0%)
Title: Spanish (Spain)
Language: Spanish (ES)
Default: No
Forced: No

Text #9
ID: 11
Format: UTF-8
Codec ID: S_TEXT/UTF8
Codec ID/Info: UTF-8 Plain Text
Duration: 41 min 53 s
Bit rate: 64 b/s
Frame rate: 0.251 FPS
Count of elements: 631
Stream size: 19.6 KiB (0%)
Language: Finnish
Default: No
Forced: No

Text #10
ID: 12
Format: UTF-8
Codec ID: S_TEXT/UTF8
Codec ID/Info: UTF-8 Plain Text
Duration: 41 min 53 s
Bit rate: 74 b/s
Frame rate: 0.289 FPS
Count of elements: 726
Stream size: 22.8 KiB (0%)
Language: French (FR)
Default: No
Forced: No

Text #11
ID: 13
Format: UTF-8
Codec ID: S_TEXT/UTF8
Codec ID/Info: UTF-8 Plain Text
Duration: 41 min 53 s
Bit rate: 71 b/s
Frame rate: 0.269 FPS
Count of elements: 676
Stream size: 22.0 KiB (0%)
Language: Hungarian
Default: No
Forced: No

Text #12
ID: 14
Format: UTF-8
Codec ID: S_TEXT/UTF8
Codec ID/Info: UTF-8 Plain Text
Duration: 41 min 53 s
Bit rate: 67 b/s
Frame rate: 0.280 FPS
Count of elements: 705
Stream size: 20.6 KiB (0%)
Language: Italian
Default: No
Forced: No

Text #13
ID: 15
Format: UTF-8
Codec ID: S_TEXT/UTF8
Codec ID/Info: UTF-8 Plain Text
Duration: 41 min 53 s
Bit rate: 58 b/s
Frame rate: 0.276 FPS
Count of elements: 693
Stream size: 17.8 KiB (0%)
Language: Japanese
Default: No
Forced: No

Text #14
ID: 16
Format: UTF-8
Codec ID: S_TEXT/UTF8
Codec ID/Info: UTF-8 Plain Text
Duration: 41 min 53 s
Bit rate: 82 b/s
Frame rate: 0.291 FPS
Count of elements: 731
Stream size: 25.4 KiB (0%)
Language: Korean
Default: No
Forced: No

Text #15
ID: 17
Format: UTF-8
Codec ID: S_TEXT/UTF8
Codec ID/Info: UTF-8 Plain Text
Duration: 41 min 53 s
Bit rate: 65 b/s
Frame rate: 0.210 FPS
Count of elements: 527
Stream size: 20.0 KiB (0%)
Language: Dutch
Default: No
Forced: No

Text #16
ID: 18
Format: UTF-8
Codec ID: S_TEXT/UTF8
Codec ID/Info: UTF-8 Plain Text
Duration: 41 min 53 s
Bit rate: 65 b/s
Frame rate: 0.248 FPS
Count of elements: 624
Stream size: 20.1 KiB (0%)
Language: Norwegian
Default: No
Forced: No

Text #17
ID: 19
Format: UTF-8
Codec ID: S_TEXT/UTF8
Codec ID/Info: UTF-8 Plain Text
Duration: 41 min 53 s
Bit rate: 56 b/s
Frame rate: 0.286 FPS
Count of elements: 720
Stream size: 17.5 KiB (0%)
Language: Polish
Default: No
Forced: No

Text #18
ID: 20
Format: UTF-8
Codec ID: S_TEXT/UTF8
Codec ID/Info: UTF-8 Plain Text
Duration: 41 min 53 s
Bit rate: 67 b/s
Frame rate: 0.284 FPS
Count of elements: 714
Stream size: 20.6 KiB (0%)
Title: Portuguese (Brazil)
Language: Portuguese (BR)
Default: No
Forced: No

Text #19
ID: 21
Format: UTF-8
Codec ID: S_TEXT/UTF8
Codec ID/Info: UTF-8 Plain Text
Duration: 41 min 53 s
Bit rate: 74 b/s
Frame rate: 0.280 FPS
Count of elements: 705
Stream size: 22.7 KiB (0%)
Title: Portuguese (Portugal)
Language: Portuguese (PT)
Default: No
Forced: No

Text #20
ID: 22
Format: UTF-8
Codec ID: S_TEXT/UTF8
Codec ID/Info: UTF-8 Plain Text
Duration: 41 min 53 s
Bit rate: 67 b/s
Frame rate: 0.206 FPS
Count of elements: 518
Stream size: 20.7 KiB (0%)
Language: Romanian
Default: No
Forced: No

Text #21
ID: 23
Format: UTF-8
Codec ID: S_TEXT/UTF8
Codec ID/Info: UTF-8 Plain Text
Duration: 41 min 53 s
Bit rate: 68 b/s
Frame rate: 0.287 FPS
Count of elements: 721
Stream size: 21.0 KiB (0%)
Language: Slovak
Default: No
Forced: No

Text #22
ID: 24
Format: UTF-8
Codec ID: S_TEXT/UTF8
Codec ID/Info: UTF-8 Plain Text
Duration: 41 min 53 s
Bit rate: 66 b/s
Frame rate: 0.276 FPS
Count of elements: 694
Stream size: 20.5 KiB (0%)
Language: Swedish
Default: No
Forced: No

Text #23
ID: 25
Format: UTF-8
Codec ID: S_TEXT/UTF8
Codec ID/Info: UTF-8 Plain Text
Duration: 41 min 53 s
Bit rate: 68 b/s
Frame rate: 0.290 FPS
Count of elements: 728
Stream size: 21.1 KiB (0%)
Language: Chinese (Traditional)
Default: No
Forced: No

ssl  EZTV RSS EZTV Status | EZTV API | DMCA: [email protected]