eztvx.to | eztvstatus.org
Search title:  
TV Packs only
 

Alert Missing Persons Unit S02E10 Federal Prisoner 07198F-068P 1080p AMZN WEB-DL DDP5 1 H 264-NTb EZTV

Episode Breakdown
Alert
Alert TV Show S02E10

Season: 2
Episode: 10
Air Date: 14 May, 2024
Download Links
     Torrent Download     Magnet Download
     Anonymous Download
Added 10 days ago by eztv (verified).
Tracker Statistics
Seeds: 5
Peers: 2
Stats generated @ 17:35 on 26th May 2024
Torrent Info
Torrent File: Alert Missing Persons Unit S02E10 Federal Prisoner 07198F-068P 1080p AMZN WEB-DL DDP5 1 H 264-NTb[EZTVx.to].mkv
Torrent Hash: E354D1EC8815CEFDBDFD46F9DB5B9A0413074F76
Filesize: 1.97 GB
Released: 15th May 2024

File Format: MKV (Matroska)
Resolution: 1920x1080 px
Aspect Ratio: 16:9
Alternate Releases S L
Alert Missing Persons Unit S02E10 720p HDTV x264-SYNCOPY 43 8
Alert Missing Persons Unit S02E10 XviD-AFG 8 4
Alert Missing Persons Unit S02E10 480p x264-mSD 12 3
Alert Missing Persons Unit S02E10 720p HEVC x265-MeGusta 5 3
Alert Missing Persons Unit S02E10 1080p WEB H264-SuccessfulCrab 7 5
Alert Missing Persons Unit S02E10 1080p HEVC x265-MeGusta 25 6
Alert Missing Persons Unit S02E10 WEBRip x264-XEN0N 6 3

Alert S02E10 - Federal Prisoner #07198F-068P

Summary:

When Wayne goes missing on the day of Nikki & Mike's wedding, the joyous festivities are put on hold as Jason and the MPU race to locate her and finally bring down Inspector Braun and his connection to the car bombing murders.
 



Alert Missing Persons Unit S02E10 Federal Prisoner 07198F-068P 1080p AMZN WEB-DL DDP5 1 H 264-NTb EZTV
Alert S2E10 Screenshot


General
Unique ID: 289169146608250307795359198216948824530 (0xD98BF3AC1600C1306486F00B949C39D2)
Complete name: Alert Missing Persons Unit S02E10 Federal Prisoner 07198F-068P 1080p AMZN WEB-DL DDP5 1 H 264-NTb.mkv
Format: Matroska
Format version: Version 4
File size: 1.97 GiB
Duration: 43 min 59 s
Overall bit rate: 6 412 kb/s
Frame rate: 23.976 FPS
Writing application: mkvmerge v84.0 ('Sleeper') 64-bit
Writing library: libebml v1.4.5 + libmatroska v1.7.1

Video
ID: 1
Format: AVC
Format/Info: Advanced Video Codec
Format profile: High@L4
Format settings: CABAC / 4 Ref Frames
Format settings, CABAC: Yes
Format settings, Reference frames: 4 frames
Codec ID: V_MPEG4/ISO/AVC
Duration: 43 min 59 s
Bit rate mode: Constant
Bit rate: 5 769 kb/s
Nominal bit rate: 10 000 kb/s
Width: 1 920 pixels
Height: 960 pixels
Display aspect ratio: 2.000
Frame rate mode: Constant
Frame rate: 23.976 (24000/1001) FPS
Color space: YUV
Chroma subsampling: 4:2:0
Bit depth: 8 bits
Scan type: Progressive
Bits/(Pixel*Frame): 0.131
Stream size: 1.77 GiB (90%)
Default: Yes
Forced: No
Color range: Limited
Color primaries: BT.709
Transfer characteristics: BT.709
Matrix coefficients: BT.709

Audio
ID: 2
Format: E-AC-3
Format/Info: Enhanced AC-3
Commercial name: Dolby Digital Plus
Codec ID: A_EAC3
Duration: 43 min 59 s
Bit rate mode: Constant
Bit rate: 640 kb/s
Channel(s): 6 channels
Channel layout: L R C LFE Ls Rs
Sampling rate: 48.0 kHz
Frame rate: 31.250 FPS (1536 SPF)
Compression mode: Lossy
Stream size: 201 MiB (10%)
Language: English (US)
Service kind: Complete Main
Default: Yes
Forced: No

Text #1
ID: 3
Format: UTF-8
Codec ID: S_TEXT/UTF8
Codec ID/Info: UTF-8 Plain Text
Duration: 43 min 11 s
Bit rate: 93 b/s
Frame rate: 0.366 FPS
Count of elements: 948
Stream size: 29.6 KiB (0%)
Language: English (US)
Default: No
Forced: No

Text #2
ID: 4
Format: UTF-8
Codec ID: S_TEXT/UTF8
Codec ID/Info: UTF-8 Plain Text
Duration: 43 min 22 s
Bit rate: 98 b/s
Frame rate: 0.385 FPS
Count of elements: 1003
Stream size: 31.4 KiB (0%)
Title: SDH
Language: English (US)
Default: No
Forced: No

ssl  EZTV RSS EZTV Status | EZTV API | DMCA: [email protected]