eztvx.to | eztvstatus.org
Search title:  
TV Packs only
 

Under the Bridge S01E06 In Water They Sink As the Same 1080p DSNP WEB-DL DDP5 1 H 264-FLUX EZTV

Episode Breakdown
Under the Bridge
Under the Bridge TV Show S01E06

Season: 1
Episode: 6
Air Date: 15 May, 2024
Download Links
     Torrent Download     Magnet Download
     Anonymous Download
Added 10 days ago by eztv (verified).
Tracker Statistics
Seeds: 34
Peers: 8
Stats generated @ 16:06 on 26th May 2024
Torrent Info
Torrent File: Under the Bridge S01E06 In Water They Sink As the Same 1080p DSNP WEB-DL DDP5 1 H 264-FLUX[EZTVx.to].mkv
Torrent Hash: 8F5A9BD170C227FB19DB1CBBB41B06DD00AC58EA
Filesize: 2.07 GB
Released: 15th May 2024

File Format: MKV (Matroska)
Resolution: 1920x1080 px
Aspect Ratio: 16:9
Alternate Releases S L
Under the Bridge S01E06 1080p WEB H264-SuccessfulCrab 37 14
Under the Bridge S01E06 1080p HEVC x265-MeGusta 65 35
Under the Bridge S01E06 WEBRip x264-XEN0N 10 4
Under the Bridge S01E06 XviD-AFG 39 23
Under the Bridge S01E06 720p x264-FENiX 16 9
Under the Bridge S01E06 In Water They Sink As the Same 720p DSNP WEB-DL DDP5 1 H 264-FLUX 6 9
Under the Bridge S01E06 1080p x265-ELiTE 27 11

Under the Bridge S01E06 - In Water, They Sink As the Same

Summary:

Past and present wounds entwine as Rebecca and Cam's alliance is tested. The Virks discuss taking matters into their own hands, and the teens use a school dance as cover for their escape plan — all as another life is threatened.



Under the Bridge S01E06 In Water They Sink As the Same 1080p DSNP WEB-DL DDP5 1 H 264-FLUX EZTV
Under the Bridge S1E6 Screenshot


General
Unique ID: 69107153757181199318469284861395999489 (0x33FD8DBDEC156993784379AD6F921B01)
Complete name: Under the Bridge S01E06 In Water They Sink As the Same 1080p DSNP WEB-DL DDP5 1 H 264-FLUX.mkv
Format: Matroska
Format version: Version 4
File size: 2.07 GiB
Duration: 48 min 18 s
Overall bit rate mode: Variable
Overall bit rate: 6 141 kb/s
Frame rate: 23.976 FPS
Writing application: mkvmerge v83.0 ('Circle Of Friends') 64-bit
Writing library: libebml v1.4.5 + libmatroska v1.7.1

Video
ID: 1
Format: AVC
Format/Info: Advanced Video Codec
Format profile: High@L4
Format settings: CABAC / 4 Ref Frames
Format settings, CABAC: Yes
Format settings, Reference frames: 4 frames
Codec ID: V_MPEG4/ISO/AVC
Duration: 48 min 18 s
Bit rate mode: Variable
Bit rate: 5 883 kb/s
Maximum bit rate: 12.7 Mb/s
Width: 1 920 pixels
Height: 1 080 pixels
Display aspect ratio: 16:9
Frame rate mode: Constant
Frame rate: 23.976 (24000/1001) FPS
Color space: YUV
Chroma subsampling: 4:2:0
Bit depth: 8 bits
Scan type: Progressive
Bits/(Pixel*Frame): 0.118
Time code of first frame: 00:00:00:0000000000
Stream size: 1.98 GiB (96%)
Language: English
Default: Yes
Forced: No
Color range: Limited
Color primaries: BT.709
Transfer characteristics: BT.709
Matrix coefficients: BT.709

Audio
ID: 2
Format: E-AC-3
Format/Info: Enhanced AC-3
Commercial name: Dolby Digital Plus
Codec ID: A_EAC3
Duration: 48 min 18 s
Bit rate mode: Constant
Bit rate: 256 kb/s
Channel(s): 6 channels
Channel layout: L R C LFE Ls Rs
Sampling rate: 48.0 kHz
Frame rate: 31.250 FPS (1536 SPF)
Compression mode: Lossy
Stream size: 88.5 MiB (4%)
Language: English
Service kind: Complete Main
Default: Yes
Forced: No

Text #1
ID: 3
Format: UTF-8
Codec ID: S_TEXT/UTF8
Codec ID/Info: UTF-8 Plain Text
Duration: 48 min 1 s
Bit rate: 62 b/s
Frame rate: 0.228 FPS
Count of elements: 657
Stream size: 21.8 KiB (0%)
Language: English
Default: No
Forced: No

Text #2
ID: 4
Format: UTF-8
Codec ID: S_TEXT/UTF8
Codec ID/Info: UTF-8 Plain Text
Duration: 48 min 3 s
Bit rate: 77 b/s
Frame rate: 0.282 FPS
Count of elements: 814
Stream size: 27.2 KiB (0%)
Title: SDH
Language: English
Default: No
Forced: No

Text #3
ID: 5
Format: UTF-8
Codec ID: S_TEXT/UTF8
Codec ID/Info: UTF-8 Plain Text
Duration: 48 min 10 s
Bit rate: 55 b/s
Frame rate: 0.205 FPS
Count of elements: 594
Stream size: 19.4 KiB (0%)
Title: Latin American
Language: Spanish (Latin America)
Default: No
Forced: No

Menu
00:47:18.919: en:Credits

ssl  EZTV RSS EZTV Status | EZTV API | DMCA: [email protected]