eztvx.to | eztvstatus.org
Search title:  
TV Packs only
 

X-Men 97 S01E10 Tolerance Is Extinction Part 3 1080p DSNP WEB-DL DDP5 1 H 264-NTb EZTV

Episode Breakdown
X-Men '97
X-Men '97 TV Show S01E10

Season: 1
Episode: 10
Air Date: 15 May, 2024
Download Links
     Torrent Download     Magnet Download
     Anonymous Download
Added 11 days ago by eztv (verified).
Tracker Statistics
Seeds: 48
Peers: 8
Stats generated @ 16:53 on 26th May 2024
Torrent Info
Torrent File: X-Men 97 S01E10 Tolerance Is Extinction Part 3 1080p DSNP WEB-DL DDP5 1 H 264-NTb[EZTVx.to].mkv
Torrent Hash: 8C555E0C0E05DFE180FAB2C33F53D0ABC7CE6177
Filesize: 2.24 GB
Released: 15th May 2024

File Format: MKV (Matroska)
Resolution: 1920x1080 px
Aspect Ratio: 16:9
Alternate Releases S L
X-Men 97 S01E10 720p WEB h264-EDITH 39 20
X-Men 97 S01E10 720p HEVC x265-MeGusta 29 17
X-Men 97 S01E10 1080p WEB H264-TheCuteness 66 14
X-Men 97 S01E10 1080p HEVC x265-MeGusta 181 62
X-Men 97 S01E10 480p x264-mSD 23 5
X-Men 97 S01E10 XviD-AFG 16 5
X-Men 97 S01E10 WEBRip x264-XEN0N 25 7

X-Men '97 S01E10 - Tolerance is Extinction - Part 3

Summary:

The X-Men's dream is put to the test as mutant-human relations reach a tipping point.



X-Men 97 S01E10 Tolerance Is Extinction Part 3 1080p DSNP WEB-DL DDP5 1 H 264-NTb EZTV
X-Men '97 S1E10 Screenshot


General
Unique ID: 277252433985569973924306754079616389854 (0xD094E060C701A39D4DB0C296E0FFD2DE)
Complete name: X-Men 97 S01E10 Tolerance Is Extinction Part 3 1080p DSNP WEB-DL DDP5 1 H 264-NTb.mkv
Format: Matroska
Format version: Version 4
File size: 2.24 GiB
Duration: 40 min 3 s
Overall bit rate mode: Variable
Overall bit rate: 8 012 kb/s
Frame rate: 24.000 FPS
Writing application: mkvmerge v81.0 ('Milliontown') 64-bit
Writing library: libebml v1.4.4 + libmatroska v1.7.1

Video
ID: 1
Format: AVC
Format/Info: Advanced Video Codec
Format profile: High@L4
Format settings: CABAC / 4 Ref Frames
Format settings, CABAC: Yes
Format settings, Reference frames: 4 frames
Codec ID: V_MPEG4/ISO/AVC
Duration: 40 min 3 s
Bit rate mode: Variable
Bit rate: 7 239 kb/s
Maximum bit rate: 12.7 Mb/s
Width: 1 920 pixels
Height: 1 080 pixels
Display aspect ratio: 16:9
Frame rate mode: Constant
Frame rate: 24.000 FPS
Color space: YUV
Chroma subsampling: 4:2:0
Bit depth: 8 bits
Scan type: Progressive
Bits/(Pixel*Frame): 0.145
Time code of first frame: 00:00:00:0000000000
Stream size: 2.03 GiB (90%)
Default: Yes
Forced: No
Color range: Limited
Color primaries: BT.709
Transfer characteristics: BT.709
Matrix coefficients: BT.709

Audio
ID: 2
Format: E-AC-3 JOC
Format/Info: Enhanced AC-3 with Joint Object Coding
Commercial name: Dolby Digital Plus with Dolby Atmos
Codec ID: A_EAC3
Duration: 40 min 3 s
Bit rate mode: Constant
Bit rate: 768 kb/s
Channel(s): 6 channels
Channel layout: L R C LFE Ls Rs
Sampling rate: 48.0 kHz
Frame rate: 31.250 FPS (1536 SPF)
Compression mode: Lossy
Stream size: 220 MiB (10%)
Language: English
Service kind: Complete Main
Default: Yes
Forced: No
Complexity index: 16
Number of dynamic objects: 15
Bed channel count: 1 channel
Bed channel configuration: LFE

Text #1
ID: 3
Format: UTF-8
Codec ID: S_TEXT/UTF8
Codec ID/Info: UTF-8 Plain Text
Duration: 38 min 28 s
Bit rate: 53 b/s
Frame rate: 0.204 FPS
Count of elements: 471
Stream size: 15.1 KiB (0%)
Language: English
Default: No
Forced: No

Text #2
ID: 4
Format: UTF-8
Codec ID: S_TEXT/UTF8
Codec ID/Info: UTF-8 Plain Text
Duration: 38 min 28 s
Bit rate: 58 b/s
Frame rate: 0.221 FPS
Count of elements: 511
Stream size: 16.4 KiB (0%)
Title: SDH
Language: English
Default: No
Forced: No

Text #3
ID: 5
Format: UTF-8
Codec ID: S_TEXT/UTF8
Codec ID/Info: UTF-8 Plain Text
Duration: 39 min 56 s
Bit rate: 54 b/s
Frame rate: 0.202 FPS
Count of elements: 485
Stream size: 15.9 KiB (0%)
Language: Czech
Default: No
Forced: No

Text #4
ID: 6
Format: UTF-8
Codec ID: S_TEXT/UTF8
Codec ID/Info: UTF-8 Plain Text
Duration: 39 min 59 s
Bit rate: 52 b/s
Frame rate: 0.145 FPS
Count of elements: 347
Stream size: 15.2 KiB (0%)
Language: Danish
Default: No
Forced: No

Text #5
ID: 7
Format: UTF-8
Codec ID: S_TEXT/UTF8
Codec ID/Info: UTF-8 Plain Text
Duration: 39 min 56 s
Bit rate: 59 b/s
Frame rate: 0.206 FPS
Count of elements: 494
Stream size: 17.4 KiB (0%)
Language: German
Default: No
Forced: No

Text #6
ID: 8
Format: UTF-8
Codec ID: S_TEXT/UTF8
Codec ID/Info: UTF-8 Plain Text
Duration: 39 min 56 s
Bit rate: 107 b/s
Frame rate: 0.207 FPS
Count of elements: 496
Stream size: 31.5 KiB (0%)
Language: Greek
Default: No
Forced: No

Text #7
ID: 9
Format: UTF-8
Codec ID: S_TEXT/UTF8
Codec ID/Info: UTF-8 Plain Text
Duration: 39 min 56 s
Bit rate: 58 b/s
Frame rate: 0.204 FPS
Count of elements: 490
Stream size: 17.1 KiB (0%)
Title: Spanish (Latin America)
Language: Spanish (Latin America)
Default: No
Forced: No

Text #8
ID: 10
Format: UTF-8
Codec ID: S_TEXT/UTF8
Codec ID/Info: UTF-8 Plain Text
Duration: 39 min 56 s
Bit rate: 57 b/s
Frame rate: 0.206 FPS
Count of elements: 493
Stream size: 16.8 KiB (0%)
Title: Spanish (Spain)
Language: Spanish (ES)
Default: No
Forced: No

Text #9
ID: 11
Format: UTF-8
Codec ID: S_TEXT/UTF8
Codec ID/Info: UTF-8 Plain Text
Duration: 39 min 56 s
Bit rate: 53 b/s
Frame rate: 0.204 FPS
Count of elements: 489
Stream size: 15.6 KiB (0%)
Language: Finnish
Default: No
Forced: No

Text #10
ID: 12
Format: UTF-8
Codec ID: S_TEXT/UTF8
Codec ID/Info: UTF-8 Plain Text
Duration: 39 min 49 s
Bit rate: 56 b/s
Frame rate: 0.215 FPS
Count of elements: 513
Stream size: 16.5 KiB (0%)
Language: French (FR)
Default: No
Forced: No

Text #11
ID: 13
Format: UTF-8
Codec ID: S_TEXT/UTF8
Codec ID/Info: UTF-8 Plain Text
Duration: 39 min 56 s
Bit rate: 59 b/s
Frame rate: 0.207 FPS
Count of elements: 495
Stream size: 17.3 KiB (0%)
Language: Hungarian
Default: No
Forced: No

Text #12
ID: 14
Format: UTF-8
Codec ID: S_TEXT/UTF8
Codec ID/Info: UTF-8 Plain Text
Duration: 39 min 56 s
Bit rate: 57 b/s
Frame rate: 0.204 FPS
Count of elements: 489
Stream size: 16.8 KiB (0%)
Language: Italian
Default: No
Forced: No

Text #13
ID: 15
Format: UTF-8
Codec ID: S_TEXT/UTF8
Codec ID/Info: UTF-8 Plain Text
Duration: 39 min 56 s
Bit rate: 54 b/s
Frame rate: 0.186 FPS
Count of elements: 445
Stream size: 15.9 KiB (0%)
Language: Japanese
Default: No
Forced: No

Text #14
ID: 16
Format: UTF-8
Codec ID: S_TEXT/UTF8
Codec ID/Info: UTF-8 Plain Text
Duration: 39 min 56 s
Bit rate: 60 b/s
Frame rate: 0.208 FPS
Count of elements: 498
Stream size: 17.7 KiB (0%)
Language: Korean
Default: No
Forced: No

Text #15
ID: 17
Format: UTF-8
Codec ID: S_TEXT/UTF8
Codec ID/Info: UTF-8 Plain Text
Duration: 39 min 56 s
Bit rate: 56 b/s
Frame rate: 0.182 FPS
Count of elements: 436
Stream size: 16.6 KiB (0%)
Language: Dutch
Default: No
Forced: No

Text #16
ID: 18
Format: UTF-8
Codec ID: S_TEXT/UTF8
Codec ID/Info: UTF-8 Plain Text
Duration: 39 min 56 s
Bit rate: 51 b/s
Frame rate: 0.202 FPS
Count of elements: 485
Stream size: 15.1 KiB (0%)
Language: Norwegian
Default: No
Forced: No

Text #17
ID: 19
Format: UTF-8
Codec ID: S_TEXT/UTF8
Codec ID/Info: UTF-8 Plain Text
Duration: 39 min 56 s
Bit rate: 58 b/s
Frame rate: 0.203 FPS
Count of elements: 486
Stream size: 17.0 KiB (0%)
Language: Polish
Default: No
Forced: No

Text #18
ID: 20
Format: UTF-8
Codec ID: S_TEXT/UTF8
Codec ID/Info: UTF-8 Plain Text
Duration: 39 min 56 s
Bit rate: 60 b/s
Frame rate: 0.206 FPS
Count of elements: 493
Stream size: 17.6 KiB (0%)
Title: Portuguese (Brazil)
Language: Portuguese (BR)
Default: No
Forced: No

Text #19
ID: 21
Format: UTF-8
Codec ID: S_TEXT/UTF8
Codec ID/Info: UTF-8 Plain Text
Duration: 39 min 56 s
Bit rate: 59 b/s
Frame rate: 0.206 FPS
Count of elements: 493
Stream size: 17.3 KiB (0%)
Title: Portuguese (Portugal)
Language: Portuguese (PT)
Default: No
Forced: No

Text #20
ID: 22
Format: UTF-8
Codec ID: S_TEXT/UTF8
Codec ID/Info: UTF-8 Plain Text
Duration: 39 min 56 s
Bit rate: 57 b/s
Frame rate: 0.203 FPS
Count of elements: 487
Stream size: 16.9 KiB (0%)
Language: Romanian
Default: No
Forced: No

Text #21
ID: 23
Format: UTF-8
Codec ID: S_TEXT/UTF8
Codec ID/Info: UTF-8 Plain Text
Duration: 39 min 56 s
Bit rate: 51 b/s
Frame rate: 0.200 FPS
Count of elements: 480
Stream size: 15.0 KiB (0%)
Language: Slovak
Default: No
Forced: No

Text #22
ID: 24
Format: UTF-8
Codec ID: S_TEXT/UTF8
Codec ID/Info: UTF-8 Plain Text
Duration: 39 min 56 s
Bit rate: 48 b/s
Frame rate: 0.142 FPS
Count of elements: 341
Stream size: 14.3 KiB (0%)
Language: Swedish
Default: No
Forced: No

Text #23
ID: 25
Format: UTF-8
Codec ID: S_TEXT/UTF8
Codec ID/Info: UTF-8 Plain Text
Duration: 39 min 56 s
Bit rate: 56 b/s
Frame rate: 0.203 FPS
Count of elements: 487
Stream size: 16.5 KiB (0%)
Language: Turkish
Default: No
Forced: No

Text #24
ID: 26
Format: UTF-8
Codec ID: S_TEXT/UTF8
Codec ID/Info: UTF-8 Plain Text
Duration: 39 min 56 s
Bit rate: 49 b/s
Frame rate: 0.208 FPS
Count of elements: 498
Stream size: 14.6 KiB (0%)
Title: Chinese (Hong Kong SAR China)
Language: Chinese (HK)
Default: No
Forced: No

Text #25
ID: 27
Format: UTF-8
Codec ID: S_TEXT/UTF8
Codec ID/Info: UTF-8 Plain Text
Duration: 39 min 56 s
Bit rate: 46 b/s
Frame rate: 0.208 FPS
Count of elements: 498
Stream size: 13.5 KiB (0%)
Title: Chinese (Traditional)
Language: Chinese (Traditional)
Default: No
Forced: No

ssl  EZTV RSS EZTV Status | EZTV API | DMCA: [email protected]