eztvx.to | eztvstatus.org
Search title:  
TV Packs only
 

Samsiki Samchon S01E04 The Great Plan 720p DSNP WEB-DL DD 5 1 H 264-playWEB EZTV

Episode Breakdown
Uncle Samsik
Uncle Samsik TV Show S01E04

Season: 1
Episode: 4
Air Date: 15 May, 2024
Download Links
     Torrent Download     Magnet Download
     Anonymous Download
Added 1 month ago by eztv (verified).
Tracker Statistics
Seeds: 0
Peers: 2
Stats generated @ 14:20 on 24th Jun 2024
Torrent Info
Torrent File: Samsiki Samchon S01E04 The Great Plan 720p DSNP WEB-DL DD 5 1 H 264-playWEB[EZTVx.to].mkv
Torrent Hash: 7524F79D58EBCC2FE49018ABDBBB384F96868925
Filesize: 1.07 GB
Released: 15th May 2024

File Format: MKV (Matroska)
Resolution: 1280x720 px
Aspect Ratio: 16:9
Alternate Releases S L
Uncle Samsik S01E04 1080p WEB h264-EDITH 47 4
Uncle Samsik S01E04 XviD-AFG 1 1

Uncle Samsik S01E04 - The Great Plan

Summary:

Samsik plots an ambitious plan to use Kim San to control the country's economy and politics.



Samsiki Samchon S01E04 The Great Plan 720p DSNP WEB-DL DD 5 1 H 264-playWEB EZTV
Uncle Samsik S1E4 Screenshot


General
Unique ID: 25021134209987992049939741043351558809 (0x12D2E529521D6229DD8B4B8656F71A99)
Complete name: Samsiki Samchon S01E04 The Great Plan 720p DSNP WEB-DL DD 5 1 H 264-playWEB.mkv
Format: Matroska
Format version: Version 4
File size: 1.07 GiB
Duration: 44 min 16 s
Overall bit rate mode: Variable
Overall bit rate: 3 474 kb/s
Frame rate: 23.976 FPS
Writing application: mkvmerge v84.0 ('Sleeper') 64-bit
Writing library: libebml v1.4.5 + libmatroska v1.7.1

Video
ID: 1
Format: AVC
Format/Info: Advanced Video Codec
Format profile: [email protected]
Format settings: CABAC / 4 Ref Frames
Format settings, CABAC: Yes
Format settings, Reference frames: 4 frames
Codec ID: V_MPEG4/ISO/AVC
Duration: 44 min 16 s
Bit rate mode: Variable
Bit rate: 3 213 kb/s
Maximum bit rate: 6 375 kb/s
Width: 1 280 pixels
Height: 720 pixels
Display aspect ratio: 16:9
Frame rate mode: Constant
Frame rate: 23.976 (24000/1001) FPS
Color space: YUV
Chroma subsampling: 4:2:0
Bit depth: 8 bits
Scan type: Progressive
Bits/(Pixel*Frame): 0.145
Time code of first frame: 00:00:00:0000000000
Stream size: 1 017 MiB (92%)
Default: Yes
Forced: No
Color range: Limited
Color primaries: BT.709
Transfer characteristics: BT.709
Matrix coefficients: BT.709

Audio
ID: 2
Format: E-AC-3
Format/Info: Enhanced AC-3
Commercial name: Dolby Digital Plus
Codec ID: A_EAC3
Duration: 44 min 16 s
Bit rate mode: Constant
Bit rate: 256 kb/s
Channel(s): 6 channels
Channel layout: L R C LFE Ls Rs
Sampling rate: 48.0 kHz
Frame rate: 31.250 FPS (1536 SPF)
Compression mode: Lossy
Stream size: 81.1 MiB (7%)
Language: Korean
Service kind: Complete Main
Default: Yes
Forced: No

Text #1
ID: 3
Format: UTF-8
Codec ID: S_TEXT/UTF8
Codec ID/Info: UTF-8 Plain Text
Duration: 44 min 13 s
Bit rate: 55 b/s
Frame rate: 0.234 FPS
Count of elements: 620
Stream size: 17.9 KiB (0%)
Language: Czech
Default: No
Forced: No

Text #2
ID: 4
Format: UTF-8
Codec ID: S_TEXT/UTF8
Codec ID/Info: UTF-8 Plain Text
Duration: 44 min 8 s
Bit rate: 56 b/s
Frame rate: 0.234 FPS
Count of elements: 621
Stream size: 18.1 KiB (0%)
Language: Danish
Default: No
Forced: No

Text #3
ID: 5
Format: UTF-8
Codec ID: S_TEXT/UTF8
Codec ID/Info: UTF-8 Plain Text
Duration: 44 min 13 s
Bit rate: 53 b/s
Frame rate: 0.233 FPS
Count of elements: 619
Stream size: 17.5 KiB (0%)
Language: German
Default: No
Forced: No

Text #4
ID: 6
Format: UTF-8
Codec ID: S_TEXT/UTF8
Codec ID/Info: UTF-8 Plain Text
Duration: 44 min 13 s
Bit rate: 89 b/s
Frame rate: 0.220 FPS
Count of elements: 584
Stream size: 29.0 KiB (0%)
Language: Greek
Default: No
Forced: No

Text #5
ID: 7
Format: UTF-8
Codec ID: S_TEXT/UTF8
Codec ID/Info: UTF-8 Plain Text
Duration: 42 min 14 s
Bit rate: 66 b/s
Frame rate: 0.254 FPS
Count of elements: 643
Stream size: 20.7 KiB (0%)
Language: English
Default: No
Forced: No

Text #6
ID: 8
Format: UTF-8
Codec ID: S_TEXT/UTF8
Codec ID/Info: UTF-8 Plain Text
Duration: 43 min 29 s
Bit rate: 78 b/s
Frame rate: 0.291 FPS
Count of elements: 760
Stream size: 24.8 KiB (0%)
Title: SDH
Language: English
Default: No
Forced: No

Text #7
ID: 9
Format: UTF-8
Codec ID: S_TEXT/UTF8
Codec ID/Info: UTF-8 Plain Text
Duration: 44 min 13 s
Bit rate: 53 b/s
Frame rate: 0.232 FPS
Count of elements: 615
Stream size: 17.2 KiB (0%)
Title: Latin American
Language: Spanish
Default: No
Forced: No

Text #8
ID: 10
Format: UTF-8
Codec ID: S_TEXT/UTF8
Codec ID/Info: UTF-8 Plain Text
Duration: 44 min 13 s
Bit rate: 54 b/s
Frame rate: 0.234 FPS
Count of elements: 620
Stream size: 17.6 KiB (0%)
Title: European
Language: Spanish
Default: No
Forced: No

Text #9
ID: 11
Format: UTF-8
Codec ID: S_TEXT/UTF8
Codec ID/Info: UTF-8 Plain Text
Duration: 44 min 13 s
Bit rate: 55 b/s
Frame rate: 0.234 FPS
Count of elements: 621
Stream size: 18.0 KiB (0%)
Language: Finnish
Default: No
Forced: No

Text #10
ID: 12
Format: UTF-8
Codec ID: S_TEXT/UTF8
Codec ID/Info: UTF-8 Plain Text
Duration: 44 min 13 s
Bit rate: 60 b/s
Frame rate: 0.232 FPS
Count of elements: 617
Stream size: 19.6 KiB (0%)
Title: European
Language: French
Default: No
Forced: No

Text #11
ID: 13
Format: UTF-8
Codec ID: S_TEXT/UTF8
Codec ID/Info: UTF-8 Plain Text
Duration: 44 min 13 s
Bit rate: 54 b/s
Frame rate: 0.233 FPS
Count of elements: 618
Stream size: 17.6 KiB (0%)
Language: Hungarian
Default: No
Forced: No

Text #12
ID: 14
Format: UTF-8
Codec ID: S_TEXT/UTF8
Codec ID/Info: UTF-8 Plain Text
Duration: 44 min 13 s
Bit rate: 53 b/s
Frame rate: 0.234 FPS
Count of elements: 621
Stream size: 17.4 KiB (0%)
Language: Italian
Default: No
Forced: No

Text #13
ID: 15
Format: UTF-8
Codec ID: S_TEXT/UTF8
Codec ID/Info: UTF-8 Plain Text
Duration: 44 min 13 s
Bit rate: 50 b/s
Frame rate: 0.214 FPS
Count of elements: 569
Stream size: 16.3 KiB (0%)
Language: Japanese
Default: No
Forced: No

Text #14
ID: 16
Format: UTF-8
Codec ID: S_TEXT/UTF8
Codec ID/Info: UTF-8 Plain Text
Duration: 43 min 42 s
Bit rate: 60 b/s
Frame rate: 0.232 FPS
Count of elements: 609
Stream size: 19.3 KiB (0%)
Language: Korean
Default: No
Forced: No

Text #15
ID: 17
Format: UTF-8
Codec ID: S_TEXT/UTF8
Codec ID/Info: UTF-8 Plain Text
Duration: 44 min 8 s
Bit rate: 80 b/s
Frame rate: 0.278 FPS
Count of elements: 736
Stream size: 26.0 KiB (0%)
Title: SDH
Language: Korean
Default: No
Forced: No

Text #16
ID: 18
Format: UTF-8
Codec ID: S_TEXT/UTF8
Codec ID/Info: UTF-8 Plain Text
Duration: 44 min 13 s
Bit rate: 54 b/s
Frame rate: 0.234 FPS
Count of elements: 621
Stream size: 17.8 KiB (0%)
Language: Dutch
Default: No
Forced: No

Text #17
ID: 19
Format: UTF-8
Codec ID: S_TEXT/UTF8
Codec ID/Info: UTF-8 Plain Text
Duration: 44 min 13 s
Bit rate: 54 b/s
Frame rate: 0.232 FPS
Count of elements: 617
Stream size: 17.8 KiB (0%)
Language: Norwegian
Default: No
Forced: No

Text #18
ID: 20
Format: UTF-8
Codec ID: S_TEXT/UTF8
Codec ID/Info: UTF-8 Plain Text
Duration: 44 min 13 s
Bit rate: 50 b/s
Frame rate: 0.234 FPS
Count of elements: 621
Stream size: 16.5 KiB (0%)
Language: Polish
Default: No
Forced: No

Text #19
ID: 21
Format: UTF-8
Codec ID: S_TEXT/UTF8
Codec ID/Info: UTF-8 Plain Text
Duration: 44 min 13 s
Bit rate: 50 b/s
Frame rate: 0.234 FPS
Count of elements: 620
Stream size: 16.5 KiB (0%)
Title: Brazilian
Language: Portuguese
Default: No
Forced: No

Text #20
ID: 22
Format: UTF-8
Codec ID: S_TEXT/UTF8
Codec ID/Info: UTF-8 Plain Text
Duration: 44 min 13 s
Bit rate: 55 b/s
Frame rate: 0.233 FPS
Count of elements: 619
Stream size: 17.9 KiB (0%)
Title: European
Language: Portuguese
Default: No
Forced: No

Text #21
ID: 23
Format: UTF-8
Codec ID: S_TEXT/UTF8
Codec ID/Info: UTF-8 Plain Text
Duration: 44 min 13 s
Bit rate: 57 b/s
Frame rate: 0.234 FPS
Count of elements: 620
Stream size: 18.7 KiB (0%)
Language: Romanian
Default: No
Forced: No

Text #22
ID: 24
Format: UTF-8
Codec ID: S_TEXT/UTF8
Codec ID/Info: UTF-8 Plain Text
Duration: 44 min 13 s
Bit rate: 53 b/s
Frame rate: 0.233 FPS
Count of elements: 619
Stream size: 17.4 KiB (0%)
Language: Slovak
Default: No
Forced: No

Text #23
ID: 25
Format: UTF-8
Codec ID: S_TEXT/UTF8
Codec ID/Info: UTF-8 Plain Text
Duration: 44 min 13 s
Bit rate: 52 b/s
Frame rate: 0.233 FPS
Count of elements: 619
Stream size: 16.9 KiB (0%)
Language: Swedish
Default: No
Forced: No

Text #24
ID: 26
Format: UTF-8
Codec ID: S_TEXT/UTF8
Codec ID/Info: UTF-8 Plain Text
Duration: 44 min 13 s
Bit rate: 57 b/s
Frame rate: 0.233 FPS
Count of elements: 619
Stream size: 18.6 KiB (0%)
Language: Turkish
Default: No
Forced: No

Text #25
ID: 27
Format: UTF-8
Codec ID: S_TEXT/UTF8
Codec ID/Info: UTF-8 Plain Text
Duration: 44 min 13 s
Bit rate: 52 b/s
Frame rate: 0.233 FPS
Count of elements: 619
Stream size: 17.1 KiB (0%)
Title: Traditional
Language: Chinese
Default: No
Forced: No

Menu
00:02:50.254: en:Intro
00:03:50.272: en:Scene 1
00:43:23.520: en:Credits

ssl  EZTV RSS EZTV Status | EZTV API | DMCA: [email protected]