eztvx.to | eztvstatus.org
Search title:  
TV Packs only
 

Samsiki Samchon S01E01 Three Meals a Day 720p DSNP WEB-DL DD 5 1 H 264-playWEB EZTV

Episode Breakdown
Uncle Samsik
Uncle Samsik TV Show S01E01

Season: 1
Episode: 1
Air Date: 15 May, 2024
Download Links
     Torrent Download     Magnet Download
     Anonymous Download
Added 30 days ago by eztv (verified).
Tracker Statistics
Seeds: 0
Peers: 1
Stats generated @ 08:40 on 15th Jun 2024
Torrent Info
Torrent File: Samsiki Samchon S01E01 Three Meals a Day 720p DSNP WEB-DL DD 5 1 H 264-playWEB[EZTVx.to].mkv
Torrent Hash: 78BDAFE71FDD8F5480AFE374B538EE2016F3FE3F
Filesize: 1.05 GB
Released: 15th May 2024

File Format: MKV (Matroska)
Resolution: 1280x720 px
Aspect Ratio: 16:9
Alternate Releases S L
Uncle Samsik S01E01 1080p WEB h264-EDITH 49 4
Uncle Samsik S01E01 XviD-AFG 5 1

Uncle Samsik S01E01 - Three Meals a Day

Summary:

Two men, each with a dream of building a prosperous society, come together.



Samsiki Samchon S01E01 Three Meals a Day 720p DSNP WEB-DL DD 5 1 H 264-playWEB EZTV
Uncle Samsik S1E1 Screenshot


General
Unique ID: 69912911435024928787823025178400868361 (0x3498BCA99ECD7E62195185EBB4354809)
Complete name: Samsiki Samchon S01E01 Three Meals a Day 720p DSNP WEB-DL DD 5 1 H 264-playWEB.mkv
Format: Matroska
Format version: Version 4
File size: 1.05 GiB
Duration: 43 min 2 s
Overall bit rate mode: Variable
Overall bit rate: 3 491 kb/s
Frame rate: 23.976 FPS
Writing application: mkvmerge v84.0 ('Sleeper') 64-bit
Writing library: libebml v1.4.5 + libmatroska v1.7.1

Video
ID: 1
Format: AVC
Format/Info: Advanced Video Codec
Format profile: [email protected]
Format settings: CABAC / 4 Ref Frames
Format settings, CABAC: Yes
Format settings, Reference frames: 4 frames
Codec ID: V_MPEG4/ISO/AVC
Duration: 43 min 2 s
Bit rate mode: Variable
Bit rate: 3 229 kb/s
Maximum bit rate: 6 375 kb/s
Width: 1 280 pixels
Height: 720 pixels
Display aspect ratio: 16:9
Frame rate mode: Constant
Frame rate: 23.976 (24000/1001) FPS
Color space: YUV
Chroma subsampling: 4:2:0
Bit depth: 8 bits
Scan type: Progressive
Bits/(Pixel*Frame): 0.146
Time code of first frame: 00:00:00:0000000000
Stream size: 994 MiB (93%)
Default: Yes
Forced: No
Color range: Limited
Color primaries: BT.709
Transfer characteristics: BT.709
Matrix coefficients: BT.709

Audio
ID: 2
Format: E-AC-3
Format/Info: Enhanced AC-3
Commercial name: Dolby Digital Plus
Codec ID: A_EAC3
Duration: 43 min 2 s
Bit rate mode: Constant
Bit rate: 256 kb/s
Channel(s): 6 channels
Channel layout: L R C LFE Ls Rs
Sampling rate: 48.0 kHz
Frame rate: 31.250 FPS (1536 SPF)
Compression mode: Lossy
Stream size: 78.8 MiB (7%)
Language: Korean
Service kind: Complete Main
Default: Yes
Forced: No

Text #1
ID: 3
Format: UTF-8
Codec ID: S_TEXT/UTF8
Codec ID/Info: UTF-8 Plain Text
Duration: 43 min 0 s
Bit rate: 65 b/s
Frame rate: 0.255 FPS
Count of elements: 658
Stream size: 20.6 KiB (0%)
Language: Czech
Default: No
Forced: No

Text #2
ID: 4
Format: UTF-8
Codec ID: S_TEXT/UTF8
Codec ID/Info: UTF-8 Plain Text
Duration: 42 min 55 s
Bit rate: 66 b/s
Frame rate: 0.258 FPS
Count of elements: 664
Stream size: 20.8 KiB (0%)
Language: Danish
Default: No
Forced: No

Text #3
ID: 5
Format: UTF-8
Codec ID: S_TEXT/UTF8
Codec ID/Info: UTF-8 Plain Text
Duration: 43 min 0 s
Bit rate: 63 b/s
Frame rate: 0.257 FPS
Count of elements: 663
Stream size: 20.1 KiB (0%)
Language: German
Default: No
Forced: No

Text #4
ID: 6
Format: UTF-8
Codec ID: S_TEXT/UTF8
Codec ID/Info: UTF-8 Plain Text
Duration: 43 min 0 s
Bit rate: 106 b/s
Frame rate: 0.242 FPS
Count of elements: 625
Stream size: 33.6 KiB (0%)
Language: Greek
Default: No
Forced: No

Text #5
ID: 7
Format: UTF-8
Codec ID: S_TEXT/UTF8
Codec ID/Info: UTF-8 Plain Text
Duration: 41 min 32 s
Bit rate: 74 b/s
Frame rate: 0.261 FPS
Count of elements: 650
Stream size: 22.7 KiB (0%)
Language: English
Default: No
Forced: No

Text #6
ID: 8
Format: UTF-8
Codec ID: S_TEXT/UTF8
Codec ID/Info: UTF-8 Plain Text
Duration: 41 min 44 s
Bit rate: 84 b/s
Frame rate: 0.290 FPS
Count of elements: 727
Stream size: 25.8 KiB (0%)
Title: SDH
Language: English
Default: No
Forced: No

Text #7
ID: 9
Format: UTF-8
Codec ID: S_TEXT/UTF8
Codec ID/Info: UTF-8 Plain Text
Duration: 43 min 0 s
Bit rate: 63 b/s
Frame rate: 0.255 FPS
Count of elements: 659
Stream size: 20.0 KiB (0%)
Title: Latin American
Language: Spanish
Default: No
Forced: No

Text #8
ID: 10
Format: UTF-8
Codec ID: S_TEXT/UTF8
Codec ID/Info: UTF-8 Plain Text
Duration: 43 min 0 s
Bit rate: 65 b/s
Frame rate: 0.255 FPS
Count of elements: 657
Stream size: 20.5 KiB (0%)
Title: European
Language: Spanish
Default: No
Forced: No

Text #9
ID: 11
Format: UTF-8
Codec ID: S_TEXT/UTF8
Codec ID/Info: UTF-8 Plain Text
Duration: 43 min 0 s
Bit rate: 67 b/s
Frame rate: 0.257 FPS
Count of elements: 663
Stream size: 21.1 KiB (0%)
Language: Finnish
Default: No
Forced: No

Text #10
ID: 12
Format: UTF-8
Codec ID: S_TEXT/UTF8
Codec ID/Info: UTF-8 Plain Text
Duration: 43 min 0 s
Bit rate: 70 b/s
Frame rate: 0.255 FPS
Count of elements: 657
Stream size: 22.4 KiB (0%)
Title: European
Language: French
Default: No
Forced: No

Text #11
ID: 13
Format: UTF-8
Codec ID: S_TEXT/UTF8
Codec ID/Info: UTF-8 Plain Text
Duration: 43 min 0 s
Bit rate: 65 b/s
Frame rate: 0.254 FPS
Count of elements: 656
Stream size: 20.6 KiB (0%)
Language: Hungarian
Default: No
Forced: No

Text #12
ID: 14
Format: UTF-8
Codec ID: S_TEXT/UTF8
Codec ID/Info: UTF-8 Plain Text
Duration: 43 min 0 s
Bit rate: 63 b/s
Frame rate: 0.257 FPS
Count of elements: 664
Stream size: 20.2 KiB (0%)
Language: Italian
Default: No
Forced: No

Text #13
ID: 15
Format: UTF-8
Codec ID: S_TEXT/UTF8
Codec ID/Info: UTF-8 Plain Text
Duration: 43 min 0 s
Bit rate: 61 b/s
Frame rate: 0.238 FPS
Count of elements: 615
Stream size: 19.2 KiB (0%)
Language: Japanese
Default: No
Forced: No

Text #14
ID: 16
Format: UTF-8
Codec ID: S_TEXT/UTF8
Codec ID/Info: UTF-8 Plain Text
Duration: 42 min 54 s
Bit rate: 69 b/s
Frame rate: 0.266 FPS
Count of elements: 686
Stream size: 21.9 KiB (0%)
Language: Korean
Default: No
Forced: No

Text #15
ID: 17
Format: UTF-8
Codec ID: S_TEXT/UTF8
Codec ID/Info: UTF-8 Plain Text
Duration: 42 min 55 s
Bit rate: 93 b/s
Frame rate: 0.310 FPS
Count of elements: 798
Stream size: 29.4 KiB (0%)
Title: SDH
Language: Korean
Default: No
Forced: No

Text #16
ID: 18
Format: UTF-8
Codec ID: S_TEXT/UTF8
Codec ID/Info: UTF-8 Plain Text
Duration: 43 min 0 s
Bit rate: 65 b/s
Frame rate: 0.256 FPS
Count of elements: 660
Stream size: 20.7 KiB (0%)
Language: Dutch
Default: No
Forced: No

Text #17
ID: 19
Format: UTF-8
Codec ID: S_TEXT/UTF8
Codec ID/Info: UTF-8 Plain Text
Duration: 43 min 0 s
Bit rate: 63 b/s
Frame rate: 0.254 FPS
Count of elements: 655
Stream size: 20.1 KiB (0%)
Language: Norwegian
Default: No
Forced: No

Text #18
ID: 20
Format: UTF-8
Codec ID: S_TEXT/UTF8
Codec ID/Info: UTF-8 Plain Text
Duration: 43 min 0 s
Bit rate: 59 b/s
Frame rate: 0.257 FPS
Count of elements: 664
Stream size: 18.9 KiB (0%)
Language: Polish
Default: No
Forced: No

Text #19
ID: 21
Format: UTF-8
Codec ID: S_TEXT/UTF8
Codec ID/Info: UTF-8 Plain Text
Duration: 43 min 0 s
Bit rate: 62 b/s
Frame rate: 0.254 FPS
Count of elements: 655
Stream size: 19.5 KiB (0%)
Title: Brazilian
Language: Portuguese
Default: No
Forced: No

Text #20
ID: 22
Format: UTF-8
Codec ID: S_TEXT/UTF8
Codec ID/Info: UTF-8 Plain Text
Duration: 43 min 0 s
Bit rate: 65 b/s
Frame rate: 0.257 FPS
Count of elements: 664
Stream size: 20.8 KiB (0%)
Title: European
Language: Portuguese
Default: No
Forced: No

Text #21
ID: 23
Format: UTF-8
Codec ID: S_TEXT/UTF8
Codec ID/Info: UTF-8 Plain Text
Duration: 43 min 0 s
Bit rate: 69 b/s
Frame rate: 0.254 FPS
Count of elements: 656
Stream size: 22.0 KiB (0%)
Language: Romanian
Default: No
Forced: No

Text #22
ID: 24
Format: UTF-8
Codec ID: S_TEXT/UTF8
Codec ID/Info: UTF-8 Plain Text
Duration: 41 min 38 s
Bit rate: 66 b/s
Frame rate: 0.262 FPS
Count of elements: 655
Stream size: 20.3 KiB (0%)
Language: Slovak
Default: No
Forced: No

Text #23
ID: 25
Format: UTF-8
Codec ID: S_TEXT/UTF8
Codec ID/Info: UTF-8 Plain Text
Duration: 43 min 0 s
Bit rate: 60 b/s
Frame rate: 0.254 FPS
Count of elements: 656
Stream size: 19.1 KiB (0%)
Language: Swedish
Default: No
Forced: No

Text #24
ID: 26
Format: UTF-8
Codec ID: S_TEXT/UTF8
Codec ID/Info: UTF-8 Plain Text
Duration: 43 min 0 s
Bit rate: 67 b/s
Frame rate: 0.254 FPS
Count of elements: 655
Stream size: 21.2 KiB (0%)
Language: Turkish
Default: No
Forced: No

Text #25
ID: 27
Format: UTF-8
Codec ID: S_TEXT/UTF8
Codec ID/Info: UTF-8 Plain Text
Duration: 43 min 0 s
Bit rate: 64 b/s
Frame rate: 0.255 FPS
Count of elements: 659
Stream size: 20.5 KiB (0%)
Title: Traditional
Language: Chinese
Default: No
Forced: No

Menu
00:02:28.524: en:Intro
00:03:28.542: en:Scene 1
00:42:10.531: en:Credits

ssl  EZTV RSS EZTV Status | EZTV API | DMCA: [email protected]