eztvx.to | eztvstatus.org
Search title:  
TV Packs only
 

Modern Dynasty S02E08 2022 1080p WEB-DL H264 AAC-HHWEB EZTV

Episode Breakdown
Modern Dynasty
Modern Dynasty TV Show S02E08

Season: 2
Episode: 8
Download Links
     Torrent Download     Magnet Download
     Anonymous Download
Added 1 month ago by eztv (verified).
Tracker Statistics
Seeds: 0
Peers: 0
Stats generated @ 16:47 on 25th Jun 2024
Torrent Info
Torrent File: Modern.Dynasty.S02E08.2022.1080p.WEB-DL.H264.AAC-HHWEB[EZTVx.to].mkv
Torrent Hash: 8A684336FAAFB090221F72920B4B491F465007CF
Filesize: 344 MB
Released: 15th May 2024

File Format: MKV (Matroska)
Resolution: 1920x1080 px
Aspect Ratio: 16:9

Episode Description


Modern Dynasty S02E08 2022 1080p WEB-DL H264 AAC-HHWEB EZTV
Modern Dynasty S2E8 Screenshot


General
Unique ID: 267395719833482413875237671740507678107 (0xC92A8AD999DDC1210E27E2156707E59B)
Complete name: Modern.Dynasty.S02E08.2022.1080p.WEB-DL.H264.AAC-HHWEB.mkv
Format: Matroska
Format version: Version 4
File size: 344 MiB
Duration: 45 min 1 s
Overall bit rate: 1 069 kb/s
Frame rate: 25.000 FPS
Encoded date: 2024-05-15 04:05:38 UTC
Writing application: mkvmerge v80.0 ('Roundabout') 64-bit
Writing library: libebml v1.4.4 + libmatroska v1.7.1

Video
ID: 1
Format: AVC
Format/Info: Advanced Video Codec
Format profile: High@L5
Format settings: CABAC / 5 Ref Frames
Format settings, CABAC: Yes
Format settings, Reference frames: 5 frames
Codec ID: V_MPEG4/ISO/AVC
Duration: 45 min 1 s
Bit rate: 778 kb/s
Width: 1 920 pixels
Height: 1 080 pixels
Display aspect ratio: 16:9
Frame rate mode: Constant
Frame rate: 25.000 FPS
Color space: YUV
Chroma subsampling: 4:2:0
Bit depth: 8 bits
Scan type: Progressive
Bits/(Pixel*Frame): 0.015
Stream size: 251 MiB (73%)
Default: Yes
Forced: No
Color range: Limited
Color primaries: BT.709
Transfer characteristics: BT.709
Matrix coefficients: BT.709

Audio #1
ID: 2
Format: AAC LC
Format/Info: Advanced Audio Codec Low Complexity
Codec ID: A_AAC-2
Duration: 45 min 1 s
Bit rate: 96.0 kb/s
Channel(s): 2 channels
Channel layout: L R
Sampling rate: 44.1 kHz
Frame rate: 43.066 FPS (1024 SPF)
Compression mode: Lossy
Stream size: 30.9 MiB (9%)
Title: T F
Language: Chinese
Default: Yes
Forced: No

Audio #2
ID: 3
Format: AAC LC
Format/Info: Advanced Audio Codec Low Complexity
Codec ID: A_AAC-2
Duration: 45 min 1 s
Bit rate: 192 kb/s
Channel(s): 2 channels
Channel layout: L R
Sampling rate: 44.1 kHz
Frame rate: 43.066 FPS (1024 SPF)
Compression mode: Lossy
Stream size: 61.8 MiB (18%)
Title: t F
Language: Cantonese
Default: Yes
Forced: No

ssl  EZTV RSS EZTV Status | EZTV API | DMCA: [email protected]