eztvx.to | eztvstatus.org
Search title:  
TV Packs only
 

The Good Doctor S07E09 Unconditional 720p AMZN WEB-DL DDP5 1 H 264-FLUX EZTV

Episode Breakdown
The Good Doctor
The Good Doctor TV Show S07E09

Season: 7
Episode: 9
Air Date: 14 May, 2024
Download Links
     Torrent Download     Magnet Download
     Anonymous Download
Added 1 month ago by eztv (verified).
Tracker Statistics
Seeds: 13
Peers: 2
Stats generated @ 17:41 on 25th Jun 2024
Torrent Info
Torrent File: The Good Doctor S07E09 Unconditional 720p AMZN WEB-DL DDP5 1 H 264-FLUX[EZTVx.to].mkv
Torrent Hash: 545C741A2E3D7ECE862BE5EE23EBD1978D1192EE
Filesize: 1.02 GB
Released: 15th May 2024

File Format: MKV (Matroska)
Resolution: 1280x720 px
Aspect Ratio: 16:9
Alternate Releases S L
The Good Doctor S07E09 720p HDTV x264-SYNCOPY 194 21
The Good Doctor S07E09 XviD-AFG 10 0
The Good Doctor S07E09 720p HEVC x265-MeGusta 18 1
The Good Doctor S07E09 480p x264-mSD 19 4
The Good Doctor S07E09 Unconditional 1080p AMZN WEB-DL DDP5 1 H 264-FLUX 55 6
The Good Doctor S07E09 1080p WEB h264-ELEANOR 2 0
The Good Doctor S07E09 1080p HEVC x265-MeGusta 26 1

The Good Doctor S07E09 - Unconditional

Summary:

Dr. Claire Browne returns from her work in Guatemala for a personal medical examination. Elsewhere, Dr. Glassman struggles to manage Hannah, who remains unresponsive to his attempts to help. Park seeks out the perfect last-minute wedding location.



The Good Doctor S07E09 Unconditional 720p AMZN WEB-DL DDP5 1 H 264-FLUX EZTV
The Good Doctor S7E9 Screenshot


General
Unique ID: 21196742946315065946728226849219342284 (0xFF2581D40FDF70122CACFF808C6EFCC)
Complete name: The Good Doctor S07E09 Unconditional 720p AMZN WEB-DL DDP5 1 H 264-FLUX.mkv
Format: Matroska
Format version: Version 4
File size: 1.02 GiB
Duration: 43 min 10 s
Overall bit rate: 3 376 kb/s
Frame rate: 23.976 FPS
Writing application: mkvmerge v83.0 ('Circle Of Friends') 64-bit
Writing library: libebml v1.4.5 + libmatroska v1.7.1

Video
ID: 1
Format: AVC
Format/Info: Advanced Video Codec
Format profile: [email protected]
Format settings: CABAC / 4 Ref Frames
Format settings, CABAC: Yes
Format settings, Reference frames: 4 frames
Codec ID: V_MPEG4/ISO/AVC
Duration: 43 min 10 s
Bit rate mode: Constant
Bit rate: 2 734 kb/s
Nominal bit rate: 6 000 kb/s
Width: 1 280 pixels
Height: 720 pixels
Display aspect ratio: 16:9
Frame rate mode: Constant
Frame rate: 23.976 (24000/1001) FPS
Color space: YUV
Chroma subsampling: 4:2:0
Bit depth: 8 bits
Scan type: Progressive
Bits/(Pixel*Frame): 0.124
Stream size: 844 MiB (81%)
Language: English (US)
Default: Yes
Forced: No
Color range: Limited
Color primaries: BT.709
Transfer characteristics: BT.709
Matrix coefficients: BT.709

Audio
ID: 2
Format: E-AC-3
Format/Info: Enhanced AC-3
Commercial name: Dolby Digital Plus
Codec ID: A_EAC3
Duration: 43 min 10 s
Bit rate mode: Constant
Bit rate: 640 kb/s
Channel(s): 6 channels
Channel layout: L R C LFE Ls Rs
Sampling rate: 48.0 kHz
Frame rate: 31.250 FPS (1536 SPF)
Compression mode: Lossy
Stream size: 198 MiB (19%)
Language: English
Service kind: Complete Main
Default: Yes
Forced: No

Text #1
ID: 3
Format: UTF-8
Codec ID: S_TEXT/UTF8
Codec ID/Info: UTF-8 Plain Text
Duration: 42 min 23 s
Bit rate: 82 b/s
Frame rate: 0.314 FPS
Count of elements: 798
Stream size: 25.6 KiB (0%)
Language: English (US)
Default: No
Forced: No

Text #2
ID: 4
Format: UTF-8
Codec ID: S_TEXT/UTF8
Codec ID/Info: UTF-8 Plain Text
Duration: 42 min 31 s
Bit rate: 84 b/s
Frame rate: 0.324 FPS
Count of elements: 828
Stream size: 26.4 KiB (0%)
Title: SDH
Language: English (US)
Default: No
Forced: No

Menu
00:00:00.000: en:Scene 1
00:42:29.000: en:End Credits

ssl  EZTV RSS EZTV Status | EZTV API | DMCA: [email protected]