eztvx.to | eztvstatus.org
Search title:  
TV Packs only
 

Shardlake S01E04 Episode 4 1080p WEBRip HDR10 10Bit DDP5 1 HEVC-d3g EZTV

Episode Breakdown
Shardlake
Shardlake TV Show S01E04

Season: 1
Episode: 4
Air Date: 1 May, 2024
Download Links
     Torrent Download     Magnet Download
     Anonymous Download
Added 1 month ago by eztv (verified).
Tracker Statistics
Seeds: 3
Peers: 3
Stats generated @ 21:17 on 14th Jun 2024
Torrent Info
Torrent File: Shardlake S01E04 Episode 4 1080p WEBRip HDR10 10Bit DDP5 1 HEVC-d3g[EZTVx.to].mkv
Torrent Hash: 7A879BB8BB930A39F6BE30B58BAA5706D8789CDC
Filesize: 3.17 GB
Released: 13th May 2024

File Format: MKV (Matroska)
Resolution: 1920x1080 px
Aspect Ratio: 16:9
Alternate Releases S L
Shardlake S01E04 1080p WEB H264-SuccessfulCrab 24 4
Shardlake S01E04 Episode 4 1080p DSNP WEB-DL DDP5 1 Atmos H 264-FLUX 3 1
Shardlake S01E04 Episode 4 720p DSNP WEB-DL DDP5 1 Atmos H 264-FLUX 4 1

Shardlake S01E04 - Episode 4

Summary:

Shardlake feels the wrath of Cromwell, but he returns in hope that he may finally unravel the truth.



Shardlake S01E04 Episode 4 1080p WEBRip HDR10 10Bit DDP5 1 HEVC-d3g EZTV
Shardlake S1E4 Screenshot


General
Unique ID: 201820825849613929889471064545300919169 (0x97D546F5F4719292A1F7D622A2D53381)
Complete name: Shardlake S01E04 Episode 4 1080p WEBRip HDR10 10Bit DDP5 1 HEVC-d3g.mkv
Format: Matroska
Format version: Version 2
File size: 3.17 GiB
Duration: 54 min 32 s
Overall bit rate: 8 329 kb/s
Frame rate: 24.000 FPS
Movie name: Shardlake.S01E04.Episode.4.1080p.WEBRip.HDR10.10Bit.DDP5.1.HEVC-d3g
Encoded date: 2024-05-11 10:50:28 UTC
Writing application: DVDFab 12.1.1.5
Writing library: libebml v1.4.2 + libmatroska v1.6.3

Video
ID: 1
Format: HEVC
Format/Info: High Efficiency Video Coding
Format profile: Main [email protected]@High
HDR format: SMPTE ST 2086, HDR10 compatible
Codec ID: V_MPEGH/ISO/HEVC
Duration: 54 min 32 s
Bit rate: 7 488 kb/s
Width: 1 920 pixels
Height: 1 080 pixels
Display aspect ratio: 16:9
Frame rate mode: Constant
Frame rate: 24.000 FPS
Color space: YUV
Chroma subsampling: 4:2:0 (Type 2)
Bit depth: 10 bits
Bits/(Pixel*Frame): 0.150
Stream size: 2.85 GiB (90%)
Default: Yes
Forced: No
Color range: Limited
Color primaries: BT.2020
Transfer characteristics: PQ
Matrix coefficients: BT.2020 non-constant
Mastering display color primaries: BT.2020
Mastering display luminance: min: 0.0001 cd/m2, max: 1000 cd/m2

Audio
ID: 2
Format: E-AC-3 JOC
Format/Info: Enhanced AC-3 with Joint Object Coding
Commercial name: Dolby Digital Plus with Dolby Atmos
Codec ID: A_EAC3
Duration: 54 min 32 s
Bit rate mode: Constant
Bit rate: 768 kb/s
Channel(s): 6 channels
Channel layout: L R C LFE Ls Rs
Sampling rate: 48.0 kHz
Frame rate: 31.250 FPS (1536 SPF)
Compression mode: Lossy
Stream size: 300 MiB (9%)
Language: English
Service kind: Complete Main
Default: Yes
Forced: No
Complexity index: 16
Number of dynamic objects: 15
Bed channel count: 1 channel
Bed channel configuration: LFE

Text #1
ID: 3
Format: PGS
Codec ID: S_HDMV/PGS
Codec ID/Info: Picture based subtitle format used on BDs/HD-DVDs
Duration: 52 min 14 s
Bit rate: 34.9 kb/s
Frame rate: 0.384 FPS
Count of elements: 1204
Stream size: 13.0 MiB (0%)
Language: English
Default: Yes
Forced: No

Text #2
ID: 4
Format: PGS
Codec ID: S_HDMV/PGS
Codec ID/Info: Picture based subtitle format used on BDs/HD-DVDs
Duration: 52 min 46 s
Bit rate: 38.8 kb/s
Frame rate: 0.448 FPS
Count of elements: 1418
Stream size: 14.7 MiB (0%)
Language: English
Default: No
Forced: No

Menu
00:00:00.000: en:Chapter 1
00:00:04.333: en:Chapter 2
00:51:48.208: en:Chapter 3

ssl  EZTV RSS EZTV Status | EZTV API | DMCA: [email protected]