eztvx.to | eztvstatus.org
Search title:  
TV Packs only
 

Shardlake S01E03 Episode 3 1080p WEBRip HDR10 10Bit DDP5 1 HEVC-d3g EZTV

Episode Breakdown
Shardlake
Shardlake TV Show S01E03

Season: 1
Episode: 3
Air Date: 1 May, 2024
Download Links
     Torrent Download     Magnet Download
     Anonymous Download
Added 1 month ago by eztv (verified).
Tracker Statistics
Seeds: 2
Peers: 0
Stats generated @ 20:10 on 14th Jun 2024
Torrent Info
Torrent File: Shardlake S01E03 Episode 3 1080p WEBRip HDR10 10Bit DDP5 1 HEVC-d3g[EZTVx.to].mkv
Torrent Hash: 7FD26CBF80566B0194EFAAC945532A6A08881CB4
Filesize: 2.86 GB
Released: 13th May 2024

File Format: MKV (Matroska)
Resolution: 1920x1080 px
Aspect Ratio: 16:9
Alternate Releases S L
Shardlake S01E03 1080p WEB H264-SuccessfulCrab 18 4
Shardlake S01E03 XviD-AFG 10 1
Shardlake S01E03 720p DSNP WEB-DL DD 5 1 Atmos H 264-playWEB 2 4
Shardlake S01E03 Episode 3 1080p DSNP WEB-DL DDP5 1 Atmos H 264-FLUX 4 4
Shardlake S01E03 MULTi 1080p WEB H264-UKDTV 0 1
Shardlake S01E03 720p x264-FENiX 2 1
Shardlake S01E03 720p x265-T0PAZ 3 1

Shardlake S01E03 - Episode 3

Summary:

Another death leads Shardlake to a gruesome discovery, changing the course of the investigation.



Shardlake S01E03 Episode 3 1080p WEBRip HDR10 10Bit DDP5 1 HEVC-d3g EZTV
Shardlake S1E3 Screenshot


General
Unique ID: 211601469808486409688605468346158253138 (0x9F30F5F04EB8C7AE91B130606FE18452)
Complete name: Shardlake S01E03 Episode 3 1080p WEBRip HDR10 10Bit DDP5 1 HEVC-d3g.mkv
Format: Matroska
Format version: Version 2
File size: 2.86 GiB
Duration: 48 min 51 s
Overall bit rate: 8 375 kb/s
Frame rate: 24.000 FPS
Movie name: Shardlake.S01E03.Episode.3.1080p.WEBRip.HDR10.10Bit.DDP5.1.HEVC-d3g
Encoded date: 2024-05-11 10:47:55 UTC
Writing application: DVDFab 12.1.1.5
Writing library: libebml v1.4.2 + libmatroska v1.6.3

Video
ID: 1
Format: HEVC
Format/Info: High Efficiency Video Coding
Format profile: Main [email protected]@High
HDR format: SMPTE ST 2086, HDR10 compatible
Codec ID: V_MPEGH/ISO/HEVC
Duration: 48 min 51 s
Bit rate: 7 532 kb/s
Width: 1 920 pixels
Height: 1 080 pixels
Display aspect ratio: 16:9
Frame rate mode: Constant
Frame rate: 24.000 FPS
Color space: YUV
Chroma subsampling: 4:2:0 (Type 2)
Bit depth: 10 bits
Bits/(Pixel*Frame): 0.151
Stream size: 2.57 GiB (90%)
Default: Yes
Forced: No
Color range: Limited
Color primaries: BT.2020
Transfer characteristics: PQ
Matrix coefficients: BT.2020 non-constant
Mastering display color primaries: BT.2020
Mastering display luminance: min: 0.0001 cd/m2, max: 1000 cd/m2

Audio
ID: 2
Format: E-AC-3 JOC
Format/Info: Enhanced AC-3 with Joint Object Coding
Commercial name: Dolby Digital Plus with Dolby Atmos
Codec ID: A_EAC3
Duration: 48 min 51 s
Bit rate mode: Constant
Bit rate: 768 kb/s
Channel(s): 6 channels
Channel layout: L R C LFE Ls Rs
Sampling rate: 48.0 kHz
Frame rate: 31.250 FPS (1536 SPF)
Compression mode: Lossy
Stream size: 268 MiB (9%)
Language: English
Service kind: Complete Main
Default: Yes
Forced: No
Complexity index: 16
Number of dynamic objects: 15
Bed channel count: 1 channel
Bed channel configuration: LFE

Text #1
ID: 3
Format: PGS
Codec ID: S_HDMV/PGS
Codec ID/Info: Picture based subtitle format used on BDs/HD-DVDs
Duration: 45 min 25 s
Bit rate: 36.9 kb/s
Frame rate: 0.416 FPS
Count of elements: 1134
Stream size: 12.0 MiB (0%)
Language: English
Default: Yes
Forced: No

Text #2
ID: 4
Format: PGS
Codec ID: S_HDMV/PGS
Codec ID/Info: Picture based subtitle format used on BDs/HD-DVDs
Duration: 47 min 5 s
Bit rate: 39.1 kb/s
Frame rate: 0.448 FPS
Count of elements: 1266
Stream size: 13.2 MiB (0%)
Language: English
Default: No
Forced: No

Menu
00:00:00.000: en:Chapter 1
00:00:04.583: en:Chapter 2
00:45:56.042: en:Chapter 3

ssl  EZTV RSS EZTV Status | EZTV API | DMCA: [email protected]