eztvx.to | eztvstatus.org
Search title:  
TV Packs only
 

Doctor Who 2005 S14E01 Space Babys 720p DSNP WEB-DL DD5 1 H 264-playWEB EZTV

Episode Breakdown
Doctor Who (2005)
Doctor Who (2005) TV Show S14E01

Season: 14
Episode: 1
Download Links
     Torrent Download     Magnet Download
     Anonymous Download
Added 17 days ago by eztv (verified).
Tracker Statistics
Seeds: 277
Peers: 5
Stats generated @ 06:25 on 28th May 2024
Torrent Info
Torrent File: Doctor Who 2005 S14E01 Space Babys 720p DSNP WEB-DL DD5 1 H 264-playWEB[EZTVx.to].mkv
Torrent Hash: B115FC7C96C34627E27C7B15AA8AC727A03561B7
Filesize: 1.29 GB
Released: 11th May 2024

File Format: MKV (Matroska)
Resolution: 1280x720 px
Aspect Ratio: 16:9
Alternate Releases S L
Doctor Who 2005 S14E01 Space Babies 1080p DSNP WEB-DL DDP5 1 H 264-NTb 244 7

Episode Description


Doctor Who 2005 S14E01 Space Babys 720p DSNP WEB-DL DD5 1 H 264-playWEB EZTV
Doctor Who (2005) S14E1 Screenshot


General
Unique ID: 68364698513067244248042999632929836281 (0x336E8FDF445205FAAC4861FB1AA14CF9)
Complete name: Doctor Who 2005 S14E01 Space Babys 720p DSNP WEB-DL DD5 1 H 264-playWEB.mkv
Format: Matroska
Format version: Version 4
File size: 1.29 GiB
Duration: 46 min 31 s
Overall bit rate mode: Variable
Overall bit rate: 3 954 kb/s
Frame rate: 25.000 FPS
Writing application: mkvmerge v84.0 ('Sleeper') 64-bit
Writing library: libebml v1.4.5 + libmatroska v1.7.1

Video
ID: 1
Format: AVC
Format/Info: Advanced Video Codec
Format profile: [email protected]
Format settings: CABAC / 4 Ref Frames
Format settings, CABAC: Yes
Format settings, Reference frames: 4 frames
Codec ID: V_MPEG4/ISO/AVC
Duration: 46 min 31 s
Bit rate mode: Variable
Bit rate: 3 693 kb/s
Maximum bit rate: 6 375 kb/s
Width: 1 280 pixels
Height: 720 pixels
Display aspect ratio: 16:9
Frame rate mode: Constant
Frame rate: 25.000 FPS
Color space: YUV
Chroma subsampling: 4:2:0
Bit depth: 8 bits
Scan type: Progressive
Bits/(Pixel*Frame): 0.160
Time code of first frame: 00:00:00:0000000000
Stream size: 1.20 GiB (93%)
Default: Yes
Forced: No
Color range: Limited
Color primaries: BT.709
Transfer characteristics: BT.709
Matrix coefficients: BT.709

Audio
ID: 2
Format: E-AC-3
Format/Info: Enhanced AC-3
Commercial name: Dolby Digital Plus
Codec ID: A_EAC3
Duration: 46 min 31 s
Bit rate mode: Constant
Bit rate: 256 kb/s
Channel(s): 6 channels
Channel layout: L R C LFE Ls Rs
Sampling rate: 48.0 kHz
Frame rate: 31.250 FPS (1536 SPF)
Compression mode: Lossy
Stream size: 85.2 MiB (6%)
Language: English
Service kind: Complete Main
Default: Yes
Forced: No

Text #1
ID: 3
Format: UTF-8
Codec ID: S_TEXT/UTF8
Codec ID/Info: UTF-8 Plain Text
Duration: 45 min 53 s
Bit rate: 69 b/s
Frame rate: 0.261 FPS
Count of elements: 719
Stream size: 23.2 KiB (0%)
Language: Czech
Default: No
Forced: No

Text #2
ID: 4
Format: UTF-8
Codec ID: S_TEXT/UTF8
Codec ID/Info: UTF-8 Plain Text
Duration: 45 min 48 s
Bit rate: 68 b/s
Frame rate: 0.250 FPS
Count of elements: 687
Stream size: 23.0 KiB (0%)
Language: Danish
Default: No
Forced: No

Text #3
ID: 5
Format: UTF-8
Codec ID: S_TEXT/UTF8
Codec ID/Info: UTF-8 Plain Text
Duration: 45 min 48 s
Bit rate: 68 b/s
Frame rate: 0.278 FPS
Count of elements: 763
Stream size: 22.9 KiB (0%)
Language: German
Default: No
Forced: No

Text #4
ID: 6
Format: UTF-8
Codec ID: S_TEXT/UTF8
Codec ID/Info: UTF-8 Plain Text
Duration: 45 min 48 s
Bit rate: 113 b/s
Frame rate: 0.271 FPS
Count of elements: 746
Stream size: 38.2 KiB (0%)
Language: Greek
Default: No
Forced: No

Text #5
ID: 7
Format: UTF-8
Codec ID: S_TEXT/UTF8
Codec ID/Info: UTF-8 Plain Text
Duration: 44 min 16 s
Bit rate: 74 b/s
Frame rate: 0.297 FPS
Count of elements: 788
Stream size: 24.2 KiB (0%)
Language: English
Default: No
Forced: No

Text #6
ID: 8
Format: UTF-8
Codec ID: S_TEXT/UTF8
Codec ID/Info: UTF-8 Plain Text
Duration: 45 min 33 s
Bit rate: 88 b/s
Frame rate: 0.349 FPS
Count of elements: 953
Stream size: 29.7 KiB (0%)
Title: British (SDH)
Language: English
Default: No
Forced: No

Text #7
ID: 9
Format: UTF-8
Codec ID: S_TEXT/UTF8
Codec ID/Info: UTF-8 Plain Text
Duration: 45 min 48 s
Bit rate: 64 b/s
Frame rate: 0.244 FPS
Count of elements: 671
Stream size: 21.6 KiB (0%)
Title: Latin American
Language: Spanish
Default: No
Forced: No

Text #8
ID: 10
Format: UTF-8
Codec ID: S_TEXT/UTF8
Codec ID/Info: UTF-8 Plain Text
Duration: 45 min 48 s
Bit rate: 69 b/s
Frame rate: 0.270 FPS
Count of elements: 742
Stream size: 23.3 KiB (0%)
Title: European
Language: Spanish
Default: No
Forced: No

Text #9
ID: 11
Format: UTF-8
Codec ID: S_TEXT/UTF8
Codec ID/Info: UTF-8 Plain Text
Duration: 45 min 48 s
Bit rate: 67 b/s
Frame rate: 0.251 FPS
Count of elements: 690
Stream size: 22.5 KiB (0%)
Language: Finnish
Default: No
Forced: No

Text #10
ID: 12
Format: UTF-8
Codec ID: S_TEXT/UTF8
Codec ID/Info: UTF-8 Plain Text
Duration: 45 min 48 s
Bit rate: 66 b/s
Frame rate: 0.277 FPS
Count of elements: 762
Stream size: 22.3 KiB (0%)
Title: European
Language: French
Default: No
Forced: No

Text #11
ID: 13
Format: UTF-8
Codec ID: S_TEXT/UTF8
Codec ID/Info: UTF-8 Plain Text
Duration: 45 min 53 s
Bit rate: 66 b/s
Frame rate: 0.272 FPS
Count of elements: 749
Stream size: 22.5 KiB (0%)
Language: Hungarian
Default: No
Forced: No

Text #12
ID: 14
Format: UTF-8
Codec ID: S_TEXT/UTF8
Codec ID/Info: UTF-8 Plain Text
Duration: 45 min 48 s
Bit rate: 65 b/s
Frame rate: 0.281 FPS
Count of elements: 773
Stream size: 22.0 KiB (0%)
Language: Italian
Default: No
Forced: No

Text #13
ID: 15
Format: UTF-8
Codec ID: S_TEXT/UTF8
Codec ID/Info: UTF-8 Plain Text
Duration: 45 min 53 s
Bit rate: 63 b/s
Frame rate: 0.270 FPS
Count of elements: 743
Stream size: 21.5 KiB (0%)
Language: Japanese
Default: No
Forced: No

Text #14
ID: 16
Format: UTF-8
Codec ID: S_TEXT/UTF8
Codec ID/Info: UTF-8 Plain Text
Duration: 45 min 53 s
Bit rate: 79 b/s
Frame rate: 0.281 FPS
Count of elements: 774
Stream size: 26.9 KiB (0%)
Language: Korean
Default: No
Forced: No

Text #15
ID: 17
Format: UTF-8
Codec ID: S_TEXT/UTF8
Codec ID/Info: UTF-8 Plain Text
Duration: 45 min 48 s
Bit rate: 61 b/s
Frame rate: 0.205 FPS
Count of elements: 564
Stream size: 20.6 KiB (0%)
Language: Dutch
Default: No
Forced: No

Text #16
ID: 18
Format: UTF-8
Codec ID: S_TEXT/UTF8
Codec ID/Info: UTF-8 Plain Text
Duration: 45 min 48 s
Bit rate: 65 b/s
Frame rate: 0.201 FPS
Count of elements: 552
Stream size: 22.0 KiB (0%)
Language: Norwegian
Default: No
Forced: No

Text #17
ID: 19
Format: UTF-8
Codec ID: S_TEXT/UTF8
Codec ID/Info: UTF-8 Plain Text
Duration: 45 min 53 s
Bit rate: 63 b/s
Frame rate: 0.272 FPS
Count of elements: 750
Stream size: 21.5 KiB (0%)
Language: Polish
Default: No
Forced: No

Text #18
ID: 20
Format: UTF-8
Codec ID: S_TEXT/UTF8
Codec ID/Info: UTF-8 Plain Text
Duration: 45 min 48 s
Bit rate: 68 b/s
Frame rate: 0.270 FPS
Count of elements: 743
Stream size: 23.1 KiB (0%)
Title: Brazilian
Language: Portuguese
Default: No
Forced: No

Text #19
ID: 21
Format: UTF-8
Codec ID: S_TEXT/UTF8
Codec ID/Info: UTF-8 Plain Text
Duration: 45 min 48 s
Bit rate: 69 b/s
Frame rate: 0.281 FPS
Count of elements: 773
Stream size: 23.2 KiB (0%)
Title: European
Language: Portuguese
Default: No
Forced: No

Text #20
ID: 22
Format: UTF-8
Codec ID: S_TEXT/UTF8
Codec ID/Info: UTF-8 Plain Text
Duration: 45 min 48 s
Bit rate: 64 b/s
Frame rate: 0.219 FPS
Count of elements: 603
Stream size: 21.8 KiB (0%)
Language: Romanian
Default: No
Forced: No

Text #21
ID: 23
Format: UTF-8
Codec ID: S_TEXT/UTF8
Codec ID/Info: UTF-8 Plain Text
Duration: 45 min 53 s
Bit rate: 62 b/s
Frame rate: 0.267 FPS
Count of elements: 734
Stream size: 21.0 KiB (0%)
Language: Slovak
Default: No
Forced: No

Text #22
ID: 24
Format: UTF-8
Codec ID: S_TEXT/UTF8
Codec ID/Info: UTF-8 Plain Text
Duration: 45 min 48 s
Bit rate: 64 b/s
Frame rate: 0.270 FPS
Count of elements: 742
Stream size: 21.8 KiB (0%)
Language: Swedish
Default: No
Forced: No

Text #23
ID: 25
Format: UTF-8
Codec ID: S_TEXT/UTF8
Codec ID/Info: UTF-8 Plain Text
Duration: 45 min 53 s
Bit rate: 68 b/s
Frame rate: 0.281 FPS
Count of elements: 774
Stream size: 23.2 KiB (0%)
Language: Turkish
Default: No
Forced: No

Text #24
ID: 26
Format: UTF-8
Codec ID: S_TEXT/UTF8
Codec ID/Info: UTF-8 Plain Text
Duration: 45 min 53 s
Bit rate: 65 b/s
Frame rate: 0.282 FPS
Count of elements: 776
Stream size: 22.1 KiB (0%)
Title: Traditional
Language: Chinese
Default: No
Forced: No

Menu
00:00:09.000: en:Intro
00:00:35.119: en:Scene 1
00:45:45.400: en:Credits

ssl  EZTV RSS EZTV Status | EZTV API | DMCA: [email protected]