eztvx.to | eztvstatus.org
Search title:  
TV Packs only
 

Palm Royale S01E05 Maxine Shakes the Tree 1080p WEBRip 10Bit DDP5 1 Atmos HEVC-d3g EZTV

Episode Breakdown
Palm Royale
Palm Royale TV Show S01E05

Season: 1
Episode: 5
Air Date: 3 April, 2024
Download Links
     Torrent Download     Magnet Download
     Anonymous Download
Added 1 month ago by eztv (verified).
Tracker Statistics
Seeds: 10
Peers: 4
Stats generated @ 10:01 on 15th Jun 2024
Torrent Info
Torrent File: Palm Royale S01E05 Maxine Shakes the Tree 1080p WEBRip 10Bit DDP5 1 Atmos HEVC-d3g[EZTVx.to].mkv
Torrent Hash: 3E3A4B2F573D3D50F8DF2EAA03A0D0E1813D1F91
Filesize: 1.82 GB
Released: 10th May 2024

File Format: MKV (Matroska)
Resolution: 1920x1080 px
Aspect Ratio: 16:9
Alternate Releases S L
Palm Royale S01E05 1080p WEB h264-ETHEL 60 3
Palm Royale S01E05 1080p HEVC x265-MeGusta 44 14
Palm Royale S01E05 Maxine Shakes the Tree 720p ATVP WEB-DL DDP5 1 H 264-NTb 10 4
Palm Royale S01E05 MULTI 1080p WEB H264-HiggsBoson 6 5
Palm Royale S01E05 Maxine Shakes the Tree 1080p ATVP WEB-DL DDP5 1 H 264-NTb 8 3
Palm Royale S01E05 Maxine Shakes the Tree 1080p ATVP WEB-DL DDP5 1 Atmos H 264-FLUX 6 1
Palm Royale S01E05 XviD-AFG 9 4

Palm Royale S01E05 - Maxine Shakes the Tree

Summary:

Maxine tries to unearth information that could upend her marriage. Linda and the Women's Circle grapple with threats to Palm Beach social order.



Palm Royale S01E05 Maxine Shakes the Tree 1080p WEBRip 10Bit DDP5 1 Atmos HEVC-d3g EZTV
Palm Royale S1E5 Screenshot


General
Unique ID: 251711228194419859818588083840271118272 (0xBD5DD1B53E6F265FA7B2754F40E9EFC0)
Complete name: Palm Royale S01E05 Maxine Shakes the Tree 1080p WEBRip 10Bit DDP5 1 Atmos HEVC-d3g.mkv
Format: Matroska
Format version: Version 2
File size: 1.82 GiB
Duration: 48 min 26 s
Overall bit rate: 5 364 kb/s
Frame rate: 23.976 FPS
Movie name: Palm.Royale.S01E05.Maxine.Shakes.the.Tree.1080p.WEBRip.10Bit.DDP5.1.Atmos.HEVC-d3g
Encoded date: 2024-05-09 15:43:17 UTC
Writing application: DVDFab 12.1.1.5
Writing library: libebml v1.4.2 + libmatroska v1.6.3

Video
ID: 1
Format: HEVC
Format/Info: High Efficiency Video Coding
Format profile: Main 10@L4@Main
Codec ID: V_MPEGH/ISO/HEVC
Duration: 48 min 26 s
Bit rate: 4 511 kb/s
Width: 1 920 pixels
Height: 816 pixels
Display aspect ratio: 2.35:1
Frame rate mode: Constant
Frame rate: 23.976 (24000/1001) FPS
Color space: YUV
Chroma subsampling: 4:2:0
Bit depth: 10 bits
Bits/(Pixel*Frame): 0.120
Stream size: 1.53 GiB (84%)
Default: Yes
Forced: No
Color range: Limited
Color primaries: BT.709
Transfer characteristics: BT.709
Matrix coefficients: BT.709

Audio
ID: 2
Format: E-AC-3 JOC
Format/Info: Enhanced AC-3 with Joint Object Coding
Commercial name: Dolby Digital Plus with Dolby Atmos
Codec ID: A_EAC3
Duration: 48 min 26 s
Bit rate mode: Constant
Bit rate: 768 kb/s
Channel(s): 6 channels
Channel layout: L R C LFE Ls Rs
Sampling rate: 48.0 kHz
Frame rate: 31.250 FPS (1536 SPF)
Compression mode: Lossy
Stream size: 266 MiB (14%)
Language: English
Service kind: Complete Main
Default: Yes
Forced: No
Complexity index: 16
Number of dynamic objects: 15
Bed channel count: 1 channel
Bed channel configuration: LFE

Text #1
ID: 3
Format: PGS
Codec ID: S_HDMV/PGS
Codec ID/Info: Picture based subtitle format used on BDs/HD-DVDs
Duration: 45 min 37 s
Bit rate: 40.2 kb/s
Frame rate: 0.530 FPS
Count of elements: 1450
Stream size: 13.1 MiB (1%)
Language: English
Default: Yes
Forced: No

Text #2
ID: 4
Format: PGS
Codec ID: S_HDMV/PGS
Codec ID/Info: Picture based subtitle format used on BDs/HD-DVDs
Duration: 45 min 41 s
Bit rate: 47.4 kb/s
Frame rate: 0.599 FPS
Count of elements: 1642
Stream size: 15.5 MiB (1%)
Language: English
Default: No
Forced: No

Menu
00:00:00.000: en:Chapter 1
00:00:08.962: en:Chapter 2
00:00:53.592: en:Chapter 3
00:47:11.000: en:Chapter 4

ssl  EZTV RSS EZTV Status | EZTV API | DMCA: [email protected]