eztvx.to | eztvstatus.org
Search title:  
TV Packs only
 

Greys Anatomy S20E07 720p x264-FENiX EZTV

Episode Breakdown
Grey's Anatomy
Grey's Anatomy TV Show S20E07

Season: 20
Episode: 7
Air Date: 9 May, 2024
Download Links
     Torrent Download     Magnet Download
     Anonymous Download
Added 1 month ago by eztv (verified).
Tracker Statistics
Seeds: 10
Peers: 6
Stats generated @ 18:16 on 25th Jun 2024
Torrent Info
Torrent File: Greys Anatomy S20E07 720p x264-FENiX[EZTVx.to].mkv
Torrent Hash: C9F64BBB1A5D06EEF39017D0CA172BD9BB68E04C
Filesize: 588 MB
Released: 10th May 2024

File Format: MKV (Matroska)
Resolution: 1280x720 px
Aspect Ratio: 16:9
Alternate Releases S L
Greys Anatomy S20E07 720p HDTV x264-SYNCOPY 225 56
Greys Anatomy S20E07 480p x264-mSD 42 8
Greys Anatomy S20E07 XviD-AFG 11 2
Greys Anatomy S20E07 1080p HEVC x265-MeGusta 68 18
Greys Anatomy S20E07 1080p WEB h264-ELEANOR 39 6
Greys Anatomy S20E07 WEBRip x264-XEN0N 14 2
Greys Anatomy S20E07 She Used to Be Mine 720p DSNP WEB-DL DDP5 1 H 264-NTb 6 2

Grey's Anatomy S20E07 - She Used to Be Mine

Summary:

An unexpectedly complex case brings back painful memories for Simone. Jules and Blue make a high-stakes bet on who can finish their procedure log first. Richard suspects Winston is avoiding him.



Greys Anatomy S20E07 720p x264-FENiX EZTV
Grey's Anatomy S20E7 Screenshot


General
Unique ID: 321997061728681099180503429346787525423 (0xF23E60D9802D7EF5ACBDB751EBF7032F)
Complete name: Greys Anatomy S20E07 720p x264-FENiX.mkv
Format: Matroska
Format version: Version 4
File size: 588 MiB
Duration: 43 min 5 s
Overall bit rate: 1 909 kb/s
Frame rate: 23.976 FPS
Movie name: Greys.Anatomy.S20E07
Writing application: Lavf60.16.100
Writing library: Lavf60.16.100
Comment: FENiX-Fri-10-May-2024,06:53:25,720p,22,fast,N,9052372,1920,1080,1.78
ErrorDetectionType: Per level 1

Video
ID: 1
Format: AVC
Format/Info: Advanced Video Codec
Format profile: [email protected]
Format settings: CABAC / 4 Ref Frames
Format settings, CABAC: Yes
Format settings, Reference frames: 4 frames
Codec ID: V_MPEG4/ISO/AVC
Duration: 43 min 5 s
Bit rate: 1 423 kb/s
Width: 1 280 pixels
Height: 720 pixels
Display aspect ratio: 16:9
Frame rate mode: Constant
Frame rate: 23.976 (24000/1001) FPS
Color space: YUV
Chroma subsampling: 4:2:0
Bit depth: 8 bits
Scan type: Progressive
Bits/(Pixel*Frame): 0.064
Stream size: 439 MiB (75%)
Writing library: x264 core 164
Encoding settings: cabac=1 / ref=2 / deblock=1:0:0 / analyse=0x3:0x113 / me=hex / subme=6 / psy=1 / psy_rd=1.00:0.00 / mixed_ref=1 / me_range=16 / chroma_me=1 / trellis=1 / 8x8dct=1 / cqm=0 / deadzone=21,11 / fast_pskip=1 / chroma_qp_offset=-2 / threads=22 / lookahead_threads=3 / sliced_threads=0 / nr=0 / decimate=1 / interlaced=0 / bluray_compat=0 / constrained_intra=0 / bframes=3 / b_pyramid=2 / b_adapt=1 / b_bias=0 / direct=1 / weightb=1 / open_gop=0 / weightp=1 / keyint=250 / keyint_min=23 / scenecut=40 / intra_refresh=0 / rc_lookahead=30 / rc=crf / mbtree=1 / crf=22.0 / qcomp=0.60 / qpmin=0 / qpmax=69 / qpstep=4 / ip_ratio=1.40 / aq=1:1.00
Default: Yes
Forced: No
Color range: Limited
Color primaries: BT.709
Transfer characteristics: BT.709
Matrix coefficients: BT.709

Audio
ID: 2
Format: AC-3
Format/Info: Audio Coding 3
Commercial name: Dolby Digital
Codec ID: A_AC3
Duration: 43 min 5 s
Bit rate mode: Constant
Bit rate: 448 kb/s
Channel(s): 6 channels
Channel layout: L R C LFE Ls Rs
Sampling rate: 48.0 kHz
Frame rate: 31.250 FPS (1536 SPF)
Bit depth: 32 bits
Compression mode: Lossy
Stream size: 138 MiB (23%)
Writing library: Lavc60.31.102 ac3
Language: English
Service kind: Complete Main
Default: Yes
Forced: No

Text
ID: 3
Format: UTF-8
Codec ID: S_TEXT/UTF8
Codec ID/Info: UTF-8 Plain Text
Duration: 42 min 16 s
Language: English
Default: No
Forced: No
ssl  EZTV RSS EZTV Status | EZTV API | DMCA: [email protected]