eztvx.to | eztvstatus.org
Search title:  
TV Packs only
 

Young Sheldon S07E11 A Little Snip and Teaching Old Dogs 720p AMZN WEB-DL DDP5 1 H 264-NTb EZTV

Episode Breakdown
Young Sheldon
Young Sheldon TV Show S07E11

Season: 7
Episode: 11
Air Date: 9 May, 2024
Download Links
     Torrent Download     Magnet Download
     Anonymous Download
Added 1 month ago by eztv (verified).
Tracker Statistics
Seeds: 42
Peers: 10
Stats generated @ 08:27 on 15th Jun 2024
Torrent Info
Torrent File: Young Sheldon S07E11 A Little Snip and Teaching Old Dogs 720p AMZN WEB-DL DDP5 1 H 264-NTb[EZTVx.to].mkv
Torrent Hash: 5A1FEA55421EA6B0F5B9ED8B9C72B271759C35ED
Filesize: 595 MB
Released: 10th May 2024

File Format: MKV (Matroska)
Resolution: 1280x720 px
Aspect Ratio: 16:9
Alternate Releases S L
Young Sheldon S07E11 720p HDTV x264-SYNCOPY 253 47
Young Sheldon S07E11 480p x264-mSD 24 8
Young Sheldon S07E11 XviD-AFG 13 10
Young Sheldon S07E11 1080p HEVC x265-MeGusta 181 30
Young Sheldon S07E11 WEBRip x264-XEN0N 16 7
Young Sheldon S07E11 720p x264-FENiX 25 9
Young Sheldon S07E11 A Little Snip and Teaching Old Dogs 1080p AMZN WEB-DL DDP5 1 H 264-FLUX 45 10

Young Sheldon S07E11 - A Little Snip and Teaching Old Dogs

Summary:

George Sr. is worried that Mary wants another baby and gets a vasectomy behind her back. Meanwhile, Drs. Linkletter and Sturgis go to Sheldon for science tutoring.



Young Sheldon S07E11 A Little Snip and Teaching Old Dogs 720p AMZN WEB-DL DDP5 1 H 264-NTb EZTV
Young Sheldon S7E11 Screenshot


General
Unique ID: 97975444735225559838044863346056113800 (0x49B562605F47305E74D7D44666D42E88)
Complete name: Young Sheldon S07E11 A Little Snip and Teaching Old Dogs 720p AMZN WEB-DL DDP5 1 H 264-NTb.mkv
Format: Matroska
Format version: Version 4
File size: 595 MiB
Duration: 18 min 44 s
Overall bit rate: 4 442 kb/s
Frame rate: 23.976 FPS
Writing application: mkvmerge v81.0 ('Milliontown') 64-bit
Writing library: libebml v1.4.4 + libmatroska v1.7.1

Video
ID: 1
Format: AVC
Format/Info: Advanced Video Codec
Format profile: [email protected]
Format settings: CABAC / 4 Ref Frames
Format settings, CABAC: Yes
Format settings, Reference frames: 4 frames
Codec ID: V_MPEG4/ISO/AVC
Duration: 18 min 44 s
Bit rate mode: Constant
Bit rate: 3 799 kb/s
Nominal bit rate: 4 000 kb/s
Width: 1 280 pixels
Height: 720 pixels
Display aspect ratio: 16:9
Frame rate mode: Constant
Frame rate: 23.976 (24000/1001) FPS
Color space: YUV
Chroma subsampling: 4:2:0
Bit depth: 8 bits
Scan type: Progressive
Bits/(Pixel*Frame): 0.172
Stream size: 509 MiB (86%)
Default: Yes
Forced: No
Color range: Limited
Color primaries: BT.709
Transfer characteristics: BT.709
Matrix coefficients: BT.709

Audio
ID: 2
Format: E-AC-3
Format/Info: Enhanced AC-3
Commercial name: Dolby Digital Plus
Codec ID: A_EAC3
Duration: 18 min 44 s
Bit rate mode: Constant
Bit rate: 640 kb/s
Channel(s): 6 channels
Channel layout: L R C LFE Ls Rs
Sampling rate: 48.0 kHz
Frame rate: 31.250 FPS (1536 SPF)
Compression mode: Lossy
Stream size: 85.8 MiB (14%)
Language: English (US)
Service kind: Complete Main
Default: Yes
Forced: No

Text #1
ID: 3
Format: UTF-8
Codec ID: S_TEXT/UTF8
Codec ID/Info: UTF-8 Plain Text
Duration: 18 min 30 s
Bit rate: 105 b/s
Frame rate: 0.434 FPS
Count of elements: 482
Stream size: 14.3 KiB (0%)
Language: English (US)
Default: No
Forced: No

Text #2
ID: 4
Format: UTF-8
Codec ID: S_TEXT/UTF8
Codec ID/Info: UTF-8 Plain Text
Duration: 18 min 30 s
Bit rate: 111 b/s
Frame rate: 0.457 FPS
Count of elements: 507
Stream size: 15.1 KiB (0%)
Title: SDH
Language: English (US)
Default: No
Forced: No

ssl  EZTV RSS EZTV Status | EZTV API | DMCA: [email protected]