eztvx.to | eztvstatus.org
Search title:  
TV Packs only
 

Shardlake S01E03 720p x264-FENiX EZTV

Episode Breakdown
Shardlake
Shardlake TV Show S01E03

Season: 1
Episode: 3
Air Date: 1 May, 2024
Download Links
     Torrent Download     Magnet Download
     Anonymous Download
Added 1 month ago by eztv (verified).
Tracker Statistics
Seeds: 2
Peers: 1
Stats generated @ 19:50 on 14th Jun 2024
Torrent Info
Torrent File: Shardlake S01E03 720p x264-FENiX[EZTVx.to].mkv
Torrent Hash: A3C62DB248763C3E85AAC85129193CE646BA3B47
Filesize: 588 MB
Released: 1st May 2024

File Format: MKV (Matroska)
Resolution: 1280x720 px
Aspect Ratio: 16:9
Alternate Releases S L
Shardlake S01E03 1080p WEB H264-SuccessfulCrab 18 4
Shardlake S01E03 XviD-AFG 10 1
Shardlake S01E03 720p DSNP WEB-DL DD 5 1 Atmos H 264-playWEB 2 4
Shardlake S01E03 Episode 3 1080p DSNP WEB-DL DDP5 1 Atmos H 264-FLUX 4 4
Shardlake S01E03 MULTi 1080p WEB H264-UKDTV 0 1
Shardlake S01E03 720p x265-T0PAZ 3 1
Shardlake S01E03 1080p x265-ELiTE 7 3

Shardlake S01E03 - Episode 3

Summary:

Another death leads Shardlake to a gruesome discovery, changing the course of the investigation.



Shardlake S01E03 720p x264-FENiX EZTV
Shardlake S1E3 Screenshot


General
Unique ID: 204698391373868102587796751578939122614 (0x99FF79E510479D03ABB2D55E26F1E3B6)
Complete name: Shardlake S01E03 720p x264-FENiX.mkv
Format: Matroska
Format version: Version 4
File size: 588 MiB
Duration: 48 min 59 s
Overall bit rate: 1 678 kb/s
Frame rate: 24.000 FPS
Movie name: Shardlake.S01E03
Writing application: Lavf60.16.100
Writing library: Lavf60.16.100
Comment: FENiX-Wed-01-May-2024,16:08:03,720p,22,fast,N,5400923,1920,1080,1.78
ErrorDetectionType: Per level 1

Video
ID: 1
Format: AVC
Format/Info: Advanced Video Codec
Format profile: [email protected]
Format settings: CABAC / 4 Ref Frames
Format settings, CABAC: Yes
Format settings, Reference frames: 4 frames
Codec ID: V_MPEG4/ISO/AVC
Duration: 48 min 59 s
Bit rate: 1 197 kb/s
Width: 1 280 pixels
Height: 720 pixels
Display aspect ratio: 16:9
Frame rate mode: Constant
Frame rate: 24.000 FPS
Color space: YUV
Chroma subsampling: 4:2:0
Bit depth: 8 bits
Scan type: Progressive
Bits/(Pixel*Frame): 0.054
Stream size: 419 MiB (71%)
Writing library: x264 core 164
Encoding settings: cabac=1 / ref=2 / deblock=1:0:0 / analyse=0x3:0x113 / me=hex / subme=6 / psy=1 / psy_rd=1.00:0.00 / mixed_ref=1 / me_range=16 / chroma_me=1 / trellis=1 / 8x8dct=1 / cqm=0 / deadzone=21,11 / fast_pskip=1 / chroma_qp_offset=-2 / threads=22 / lookahead_threads=3 / sliced_threads=0 / nr=0 / decimate=1 / interlaced=0 / bluray_compat=0 / constrained_intra=0 / bframes=3 / b_pyramid=2 / b_adapt=1 / b_bias=0 / direct=1 / weightb=1 / open_gop=0 / weightp=1 / keyint=250 / keyint_min=24 / scenecut=40 / intra_refresh=0 / rc_lookahead=30 / rc=crf / mbtree=1 / crf=22.0 / qcomp=0.60 / qpmin=0 / qpmax=69 / qpstep=4 / ip_ratio=1.40 / aq=1:1.00
Default: Yes
Forced: No
Color range: Limited

Audio
ID: 2
Format: AC-3
Format/Info: Audio Coding 3
Commercial name: Dolby Digital
Codec ID: A_AC3
Duration: 48 min 59 s
Bit rate mode: Constant
Bit rate: 448 kb/s
Channel(s): 6 channels
Channel layout: L R C LFE Ls Rs
Sampling rate: 48.0 kHz
Frame rate: 31.250 FPS (1536 SPF)
Bit depth: 32 bits
Compression mode: Lossy
Stream size: 157 MiB (27%)
Writing library: Lavc60.31.102 ac3
Language: English
Service kind: Complete Main
Default: Yes
Forced: No

Text
ID: 3
Format: UTF-8
Codec ID: S_TEXT/UTF8
Codec ID/Info: UTF-8 Plain Text
Duration: 47 min 16 s
Language: English
Default: No
Forced: No

ssl  EZTV RSS EZTV Status | EZTV API | DMCA: [email protected]