eztvx.to | eztvstatus.org
Search title:  
TV Packs only
 

Shardlake S01E02 Episode 2 1080p DSNP WEB-DL DDP5 1 Atmos H 264-FLUX EZTV

Episode Breakdown
Shardlake
Shardlake TV Show S01E02

Season: 1
Episode: 2
Air Date: 1 May, 2024
Download Links
     Torrent Download     Magnet Download
     Anonymous Download
Added 1 month ago by eztv (verified).
Tracker Statistics
Seeds: 5
Peers: 2
Stats generated @ 21:03 on 14th Jun 2024
Torrent Info
Torrent File: Shardlake S01E02 Episode 2 1080p DSNP WEB-DL DDP5 1 Atmos H 264-FLUX[EZTVx.to].mkv
Torrent Hash: 9EB60DAF8927541E1C6ABA026B854607B173FC2F
Filesize: 2.44 GB
Released: 1st May 2024

File Format: MKV (Matroska)
Resolution: 1920x1080 px
Aspect Ratio: 16:9
Alternate Releases S L
Shardlake S01E02 1080p WEB H264-SuccessfulCrab 12 2
Shardlake S01E02 1080p HEVC x265-MeGusta 21 4
Shardlake S01E02 720p DSNP WEB-DL DD 5 1 Atmos H 264-playWEB 2 0
Shardlake S01E02 MULTi 1080p WEB H264-UKDTV 0 1
Shardlake S01E02 720p x264-FENiX 3 1
Shardlake S01E02 720p x265-T0PAZ 2 0
Shardlake S01E02 1080p x265-ELiTE 10 6

Shardlake S01E02 - Episode 2

Summary:

Shardlake hears a shocking allegation that incriminates Cromwell, and could put himself in danger.



Shardlake S01E02 Episode 2 1080p DSNP WEB-DL DDP5 1 Atmos H 264-FLUX EZTV
Shardlake S1E2 Screenshot


General
Unique ID: 106887902843219641039786674156115685757 (0x5069DC7CB48AEE5D06E2F1473F1D717D)
Complete name: Shardlake S01E02 Episode 2 1080p DSNP WEB-DL DDP5 1 Atmos H 264-FLUX.mkv
Format: Matroska
Format version: Version 4
File size: 2.44 GiB
Duration: 47 min 46 s
Overall bit rate mode: Variable
Overall bit rate: 7 305 kb/s
Frame rate: 24.000 FPS
Writing application: mkvmerge v83.0 ('Circle Of Friends') 64-bit
Writing library: libebml v1.4.5 + libmatroska v1.7.1

Video
ID: 1
Format: AVC
Format/Info: Advanced Video Codec
Format profile: High@L4
Format settings: CABAC / 4 Ref Frames
Format settings, CABAC: Yes
Format settings, Reference frames: 4 frames
Codec ID: V_MPEG4/ISO/AVC
Duration: 47 min 46 s
Bit rate mode: Variable
Bit rate: 6 533 kb/s
Maximum bit rate: 12.7 Mb/s
Width: 1 920 pixels
Height: 1 080 pixels
Display aspect ratio: 16:9
Frame rate mode: Constant
Frame rate: 24.000 FPS
Color space: YUV
Chroma subsampling: 4:2:0
Bit depth: 8 bits
Scan type: Progressive
Bits/(Pixel*Frame): 0.131
Time code of first frame: 00:00:00:0000000000
Stream size: 2.18 GiB (89%)
Language: English
Default: Yes
Forced: No
Color range: Limited
Color primaries: BT.709
Transfer characteristics: BT.709
Matrix coefficients: BT.709

Audio
ID: 2
Format: E-AC-3 JOC
Format/Info: Enhanced AC-3 with Joint Object Coding
Commercial name: Dolby Digital Plus with Dolby Atmos
Codec ID: A_EAC3
Duration: 47 min 46 s
Bit rate mode: Constant
Bit rate: 768 kb/s
Channel(s): 6 channels
Channel layout: L R C LFE Ls Rs
Sampling rate: 48.0 kHz
Frame rate: 31.250 FPS (1536 SPF)
Compression mode: Lossy
Stream size: 262 MiB (11%)
Language: English
Service kind: Complete Main
Default: Yes
Forced: No
Complexity index: 16
Number of dynamic objects: 15
Bed channel count: 1 channel
Bed channel configuration: LFE

Text #1
ID: 3
Format: UTF-8
Codec ID: S_TEXT/UTF8
Codec ID/Info: UTF-8 Plain Text
Duration: 45 min 25 s
Bit rate: 59 b/s
Frame rate: 0.226 FPS
Count of elements: 616
Stream size: 19.7 KiB (0%)
Title: British
Language: English (GB)
Default: No
Forced: No

Text #2
ID: 4
Format: UTF-8
Codec ID: S_TEXT/UTF8
Codec ID/Info: UTF-8 Plain Text
Duration: 45 min 58 s
Bit rate: 67 b/s
Frame rate: 0.268 FPS
Count of elements: 738
Stream size: 22.6 KiB (0%)
Title: British | SDH
Language: English (GB)
Default: No
Forced: No

Text #3
ID: 5
Format: UTF-8
Codec ID: S_TEXT/UTF8
Codec ID/Info: UTF-8 Plain Text
Duration: 47 min 1 s
Bit rate: 51 b/s
Frame rate: 0.215 FPS
Count of elements: 606
Stream size: 17.8 KiB (0%)
Language: Czech
Default: No
Forced: No

Text #4
ID: 6
Format: UTF-8
Codec ID: S_TEXT/UTF8
Codec ID/Info: UTF-8 Plain Text
Duration: 47 min 1 s
Bit rate: 53 b/s
Frame rate: 0.158 FPS
Count of elements: 446
Stream size: 18.3 KiB (0%)
Language: Danish
Default: No
Forced: No

Text #5
ID: 7
Format: UTF-8
Codec ID: S_TEXT/UTF8
Codec ID/Info: UTF-8 Plain Text
Duration: 47 min 1 s
Bit rate: 60 b/s
Frame rate: 0.216 FPS
Count of elements: 610
Stream size: 20.9 KiB (0%)
Language: German
Default: No
Forced: No

Text #6
ID: 8
Format: UTF-8
Codec ID: S_TEXT/UTF8
Codec ID/Info: UTF-8 Plain Text
Duration: 47 min 1 s
Bit rate: 87 b/s
Frame rate: 0.212 FPS
Count of elements: 599
Stream size: 30.3 KiB (0%)
Language: Greek
Default: No
Forced: No

Text #7
ID: 9
Format: UTF-8
Codec ID: S_TEXT/UTF8
Codec ID/Info: UTF-8 Plain Text
Duration: 47 min 1 s
Bit rate: 54 b/s
Frame rate: 0.215 FPS
Count of elements: 607
Stream size: 18.9 KiB (0%)
Language: Spanish (ES)
Default: No
Forced: No

Text #8
ID: 10
Format: UTF-8
Codec ID: S_TEXT/UTF8
Codec ID/Info: UTF-8 Plain Text
Duration: 47 min 1 s
Bit rate: 49 b/s
Frame rate: 0.199 FPS
Count of elements: 561
Stream size: 17.2 KiB (0%)
Language: Finnish
Default: No
Forced: No

Text #9
ID: 11
Format: UTF-8
Codec ID: S_TEXT/UTF8
Codec ID/Info: UTF-8 Plain Text
Duration: 47 min 1 s
Bit rate: 58 b/s
Frame rate: 0.213 FPS
Count of elements: 600
Stream size: 20.3 KiB (0%)
Language: French (FR)
Default: No
Forced: No

Text #10
ID: 12
Format: UTF-8
Codec ID: S_TEXT/UTF8
Codec ID/Info: UTF-8 Plain Text
Duration: 47 min 1 s
Bit rate: 54 b/s
Frame rate: 0.217 FPS
Count of elements: 613
Stream size: 18.6 KiB (0%)
Language: Hungarian
Default: No
Forced: No

Text #11
ID: 13
Format: UTF-8
Codec ID: S_TEXT/UTF8
Codec ID/Info: UTF-8 Plain Text
Duration: 47 min 1 s
Bit rate: 54 b/s
Frame rate: 0.213 FPS
Count of elements: 600
Stream size: 18.7 KiB (0%)
Language: Italian
Default: No
Forced: No

Text #12
ID: 14
Format: UTF-8
Codec ID: S_TEXT/UTF8
Codec ID/Info: UTF-8 Plain Text
Duration: 47 min 1 s
Bit rate: 49 b/s
Frame rate: 0.189 FPS
Count of elements: 534
Stream size: 17.2 KiB (0%)
Language: Dutch
Default: No
Forced: No

Text #13
ID: 15
Format: UTF-8
Codec ID: S_TEXT/UTF8
Codec ID/Info: UTF-8 Plain Text
Duration: 47 min 1 s
Bit rate: 53 b/s
Frame rate: 0.148 FPS
Count of elements: 419
Stream size: 18.5 KiB (0%)
Language: Norwegian
Default: No
Forced: No

Text #14
ID: 16
Format: UTF-8
Codec ID: S_TEXT/UTF8
Codec ID/Info: UTF-8 Plain Text
Duration: 47 min 1 s
Bit rate: 50 b/s
Frame rate: 0.214 FPS
Count of elements: 605
Stream size: 17.5 KiB (0%)
Language: Polish
Default: No
Forced: No

Text #15
ID: 17
Format: UTF-8
Codec ID: S_TEXT/UTF8
Codec ID/Info: UTF-8 Plain Text
Duration: 47 min 1 s
Bit rate: 56 b/s
Frame rate: 0.217 FPS
Count of elements: 613
Stream size: 19.3 KiB (0%)
Language: Portuguese (PT)
Default: No
Forced: No

Text #16
ID: 18
Format: UTF-8
Codec ID: S_TEXT/UTF8
Codec ID/Info: UTF-8 Plain Text
Duration: 47 min 1 s
Bit rate: 52 b/s
Frame rate: 0.180 FPS
Count of elements: 507
Stream size: 18.2 KiB (0%)
Language: Romanian
Default: No
Forced: No

Text #17
ID: 19
Format: UTF-8
Codec ID: S_TEXT/UTF8
Codec ID/Info: UTF-8 Plain Text
Duration: 47 min 1 s
Bit rate: 52 b/s
Frame rate: 0.217 FPS
Count of elements: 612
Stream size: 18.2 KiB (0%)
Language: Slovak
Default: No
Forced: No

Text #18
ID: 20
Format: UTF-8
Codec ID: S_TEXT/UTF8
Codec ID/Info: UTF-8 Plain Text
Duration: 47 min 1 s
Bit rate: 55 b/s
Frame rate: 0.180 FPS
Count of elements: 509
Stream size: 19.0 KiB (0%)
Language: Swedish
Default: No
Forced: No

Text #19
ID: 21
Format: UTF-8
Codec ID: S_TEXT/UTF8
Codec ID/Info: UTF-8 Plain Text
Duration: 47 min 1 s
Bit rate: 56 b/s
Frame rate: 0.217 FPS
Count of elements: 613
Stream size: 19.5 KiB (0%)
Language: Turkish
Default: No
Forced: No

Menu
00:03:27.167: en:Intro
00:03:32.667: en:Scene 1
00:46:17.125: en:Credits

ssl  EZTV RSS EZTV Status | EZTV API | DMCA: [email protected]