eztvx.to | eztvstatus.org
Search title:  
TV Packs only
 

Shardlake S01E04 Episode 4 1080p DSNP WEB-DL DDP5 1 Atmos H 264-FLUX EZTV

Episode Breakdown
Shardlake
Shardlake TV Show S01E04

Season: 1
Episode: 4
Air Date: 1 May, 2024
Download Links
     Torrent Download     Magnet Download
     Anonymous Download
Added 1 month ago by eztv (verified).
Tracker Statistics
Seeds: 3
Peers: 1
Stats generated @ 21:11 on 14th Jun 2024
Torrent Info
Torrent File: Shardlake S01E04 Episode 4 1080p DSNP WEB-DL DDP5 1 Atmos H 264-FLUX[EZTVx.to].mkv
Torrent Hash: F0EECB3EA5B734F809A1869A14A64E3C190ABBB1
Filesize: 2.69 GB
Released: 1st May 2024

File Format: MKV (Matroska)
Resolution: 1920x1080 px
Aspect Ratio: 16:9
Alternate Releases S L
Shardlake S01E04 1080p WEB H264-SuccessfulCrab 24 4
Shardlake S01E04 Episode 4 720p DSNP WEB-DL DDP5 1 Atmos H 264-FLUX 4 1
Shardlake S01E04 Episode 4 1080p WEBRip HDR10 10Bit DDP5 1 HEVC-d3g 3 3

Shardlake S01E04 - Episode 4

Summary:

Shardlake feels the wrath of Cromwell, but he returns in hope that he may finally unravel the truth.



Shardlake S01E04 Episode 4 1080p DSNP WEB-DL DDP5 1 Atmos H 264-FLUX EZTV
Shardlake S1E4 Screenshot


General
Unique ID: 206619202216340665193787011124841302334 (0x9B71692E57C290981B7364C55676493E)
Complete name: Shardlake S01E04 Episode 4 1080p DSNP WEB-DL DDP5 1 Atmos H 264-FLUX.mkv
Format: Matroska
Format version: Version 4
File size: 2.69 GiB
Duration: 54 min 32 s
Overall bit rate mode: Variable
Overall bit rate: 7 070 kb/s
Frame rate: 24.000 FPS
Writing application: mkvmerge v83.0 ('Circle Of Friends') 64-bit
Writing library: libebml v1.4.5 + libmatroska v1.7.1

Video
ID: 1
Format: AVC
Format/Info: Advanced Video Codec
Format profile: High@L4
Format settings: CABAC / 4 Ref Frames
Format settings, CABAC: Yes
Format settings, Reference frames: 4 frames
Codec ID: V_MPEG4/ISO/AVC
Duration: 54 min 32 s
Bit rate mode: Variable
Bit rate: 6 298 kb/s
Maximum bit rate: 12.7 Mb/s
Width: 1 920 pixels
Height: 1 080 pixels
Display aspect ratio: 16:9
Frame rate mode: Constant
Frame rate: 24.000 FPS
Color space: YUV
Chroma subsampling: 4:2:0
Bit depth: 8 bits
Scan type: Progressive
Bits/(Pixel*Frame): 0.127
Time code of first frame: 00:00:00:0000000000
Stream size: 2.40 GiB (89%)
Language: English
Default: Yes
Forced: No
Color range: Limited
Color primaries: BT.709
Transfer characteristics: BT.709
Matrix coefficients: BT.709

Audio
ID: 2
Format: E-AC-3 JOC
Format/Info: Enhanced AC-3 with Joint Object Coding
Commercial name: Dolby Digital Plus with Dolby Atmos
Codec ID: A_EAC3
Duration: 54 min 32 s
Bit rate mode: Constant
Bit rate: 768 kb/s
Channel(s): 6 channels
Channel layout: L R C LFE Ls Rs
Sampling rate: 48.0 kHz
Frame rate: 31.250 FPS (1536 SPF)
Compression mode: Lossy
Stream size: 300 MiB (11%)
Language: English
Service kind: Complete Main
Default: Yes
Forced: No
Complexity index: 16
Number of dynamic objects: 15
Bed channel count: 1 channel
Bed channel configuration: LFE

Text #1
ID: 3
Format: UTF-8
Codec ID: S_TEXT/UTF8
Codec ID/Info: UTF-8 Plain Text
Duration: 52 min 13 s
Bit rate: 53 b/s
Frame rate: 0.192 FPS
Count of elements: 602
Stream size: 20.5 KiB (0%)
Title: British
Language: English (GB)
Default: No
Forced: No

Text #2
ID: 4
Format: UTF-8
Codec ID: S_TEXT/UTF8
Codec ID/Info: UTF-8 Plain Text
Duration: 52 min 45 s
Bit rate: 58 b/s
Frame rate: 0.224 FPS
Count of elements: 709
Stream size: 22.8 KiB (0%)
Title: British | SDH
Language: English (GB)
Default: No
Forced: No

Text #3
ID: 5
Format: UTF-8
Codec ID: S_TEXT/UTF8
Codec ID/Info: UTF-8 Plain Text
Duration: 53 min 46 s
Bit rate: 46 b/s
Frame rate: 0.184 FPS
Count of elements: 594
Stream size: 18.3 KiB (0%)
Language: Czech
Default: No
Forced: No

Text #4
ID: 6
Format: UTF-8
Codec ID: S_TEXT/UTF8
Codec ID/Info: UTF-8 Plain Text
Duration: 53 min 46 s
Bit rate: 49 b/s
Frame rate: 0.143 FPS
Count of elements: 461
Stream size: 19.5 KiB (0%)
Language: Danish
Default: No
Forced: No

Text #5
ID: 7
Format: UTF-8
Codec ID: S_TEXT/UTF8
Codec ID/Info: UTF-8 Plain Text
Duration: 53 min 46 s
Bit rate: 56 b/s
Frame rate: 0.182 FPS
Count of elements: 588
Stream size: 22.2 KiB (0%)
Language: German
Default: No
Forced: No

Text #6
ID: 8
Format: UTF-8
Codec ID: S_TEXT/UTF8
Codec ID/Info: UTF-8 Plain Text
Duration: 53 min 46 s
Bit rate: 81 b/s
Frame rate: 0.185 FPS
Count of elements: 597
Stream size: 32.0 KiB (0%)
Language: Greek
Default: No
Forced: No

Text #7
ID: 9
Format: UTF-8
Codec ID: S_TEXT/UTF8
Codec ID/Info: UTF-8 Plain Text
Duration: 53 min 46 s
Bit rate: 49 b/s
Frame rate: 0.185 FPS
Count of elements: 598
Stream size: 19.6 KiB (0%)
Language: Spanish (ES)
Default: No
Forced: No

Text #8
ID: 10
Format: UTF-8
Codec ID: S_TEXT/UTF8
Codec ID/Info: UTF-8 Plain Text
Duration: 53 min 46 s
Bit rate: 46 b/s
Frame rate: 0.178 FPS
Count of elements: 573
Stream size: 18.2 KiB (0%)
Language: Finnish
Default: No
Forced: No

Text #9
ID: 11
Format: UTF-8
Codec ID: S_TEXT/UTF8
Codec ID/Info: UTF-8 Plain Text
Duration: 53 min 46 s
Bit rate: 52 b/s
Frame rate: 0.184 FPS
Count of elements: 595
Stream size: 20.6 KiB (0%)
Language: French (FR)
Default: No
Forced: No

Text #10
ID: 12
Format: UTF-8
Codec ID: S_TEXT/UTF8
Codec ID/Info: UTF-8 Plain Text
Duration: 53 min 46 s
Bit rate: 48 b/s
Frame rate: 0.185 FPS
Count of elements: 598
Stream size: 19.3 KiB (0%)
Language: Hungarian
Default: No
Forced: No

Text #11
ID: 13
Format: UTF-8
Codec ID: S_TEXT/UTF8
Codec ID/Info: UTF-8 Plain Text
Duration: 53 min 46 s
Bit rate: 49 b/s
Frame rate: 0.182 FPS
Count of elements: 588
Stream size: 19.4 KiB (0%)
Language: Italian
Default: No
Forced: No

Text #12
ID: 14
Format: UTF-8
Codec ID: S_TEXT/UTF8
Codec ID/Info: UTF-8 Plain Text
Duration: 53 min 46 s
Bit rate: 45 b/s
Frame rate: 0.168 FPS
Count of elements: 541
Stream size: 18.1 KiB (0%)
Language: Dutch
Default: No
Forced: No

Text #13
ID: 15
Format: UTF-8
Codec ID: S_TEXT/UTF8
Codec ID/Info: UTF-8 Plain Text
Duration: 53 min 46 s
Bit rate: 49 b/s
Frame rate: 0.133 FPS
Count of elements: 428
Stream size: 19.5 KiB (0%)
Language: Norwegian
Default: No
Forced: No

Text #14
ID: 16
Format: UTF-8
Codec ID: S_TEXT/UTF8
Codec ID/Info: UTF-8 Plain Text
Duration: 53 min 46 s
Bit rate: 46 b/s
Frame rate: 0.185 FPS
Count of elements: 596
Stream size: 18.3 KiB (0%)
Language: Polish
Default: No
Forced: No

Text #15
ID: 17
Format: UTF-8
Codec ID: S_TEXT/UTF8
Codec ID/Info: UTF-8 Plain Text
Duration: 53 min 46 s
Bit rate: 51 b/s
Frame rate: 0.185 FPS
Count of elements: 596
Stream size: 20.3 KiB (0%)
Language: Portuguese (PT)
Default: No
Forced: No

Text #16
ID: 18
Format: UTF-8
Codec ID: S_TEXT/UTF8
Codec ID/Info: UTF-8 Plain Text
Duration: 53 min 46 s
Bit rate: 48 b/s
Frame rate: 0.159 FPS
Count of elements: 513
Stream size: 19.2 KiB (0%)
Language: Romanian
Default: No
Forced: No

Text #17
ID: 19
Format: UTF-8
Codec ID: S_TEXT/UTF8
Codec ID/Info: UTF-8 Plain Text
Duration: 53 min 46 s
Bit rate: 47 b/s
Frame rate: 0.185 FPS
Count of elements: 597
Stream size: 18.5 KiB (0%)
Language: Slovak
Default: No
Forced: No

Text #18
ID: 20
Format: UTF-8
Codec ID: S_TEXT/UTF8
Codec ID/Info: UTF-8 Plain Text
Duration: 53 min 46 s
Bit rate: 50 b/s
Frame rate: 0.161 FPS
Count of elements: 520
Stream size: 19.9 KiB (0%)
Language: Swedish
Default: No
Forced: No

Text #19
ID: 21
Format: UTF-8
Codec ID: S_TEXT/UTF8
Codec ID/Info: UTF-8 Plain Text
Duration: 53 min 46 s
Bit rate: 50 b/s
Frame rate: 0.185 FPS
Count of elements: 598
Stream size: 19.9 KiB (0%)
Language: Turkish
Default: No
Forced: No

Menu
00:01:12.917: en:Intro
00:01:17.250: en:Scene 1
00:53:01.125: en:Credits

ssl  EZTV RSS EZTV Status | EZTV API | DMCA: [email protected]