eztvx.to | eztvstatus.org
Search title:  
TV Packs only
 

Shardlake S01E03 720p DSNP WEB-DL DD 5 1 Atmos H 264-playWEB EZTV

Episode Breakdown
Shardlake
Shardlake TV Show S01E03

Season: 1
Episode: 3
Air Date: 1 May, 2024
Download Links
     Torrent Download     Magnet Download
     Anonymous Download
Added 1 month ago by eztv (verified).
Tracker Statistics
Seeds: 2
Peers: 4
Stats generated @ 20:16 on 14th Jun 2024
Torrent Info
Torrent File: Shardlake S01E03 720p DSNP WEB-DL DD 5 1 Atmos H 264-playWEB[EZTVx.to].mkv
Torrent Hash: 78FD6F276200E5FB7DF8447BF880F2BB8170C441
Filesize: 1.28 GB
Released: 1st May 2024

File Format: MKV (Matroska)
Resolution: 1280x720 px
Aspect Ratio: 16:9
Alternate Releases S L
Shardlake S01E03 1080p WEB H264-SuccessfulCrab 18 4
Shardlake S01E03 XviD-AFG 10 1
Shardlake S01E03 Episode 3 1080p DSNP WEB-DL DDP5 1 Atmos H 264-FLUX 4 4
Shardlake S01E03 MULTi 1080p WEB H264-UKDTV 0 1
Shardlake S01E03 720p x264-FENiX 2 1
Shardlake S01E03 720p x265-T0PAZ 3 1
Shardlake S01E03 1080p x265-ELiTE 7 3

Shardlake S01E03 - Episode 3

Summary:

Another death leads Shardlake to a gruesome discovery, changing the course of the investigation.



Shardlake S01E03 720p DSNP WEB-DL DD 5 1 Atmos H 264-playWEB EZTV
Shardlake S1E3 Screenshot


General
Unique ID: 244731983606794030783115625355097463021 (0xB81DAA61FE5169E1CFB33DCF3538D8ED)
Complete name: Shardlake S01E03 720p DSNP WEB-DL DD 5 1 Atmos H 264-playWEB.mkv
Format: Matroska
Format version: Version 4
File size: 1.28 GiB
Duration: 48 min 51 s
Overall bit rate mode: Variable
Overall bit rate: 3 761 kb/s
Frame rate: 24.000 FPS
Writing application: mkvmerge v83.0 ('Circle Of Friends') 64-bit
Writing library: libebml v1.4.5 + libmatroska v1.7.1

Video
ID: 1
Format: AVC
Format/Info: Advanced Video Codec
Format profile: [email protected]
Format settings: CABAC / 4 Ref Frames
Format settings, CABAC: Yes
Format settings, Reference frames: 4 frames
Codec ID: V_MPEG4/ISO/AVC
Duration: 48 min 51 s
Bit rate mode: Variable
Bit rate: 2 989 kb/s
Maximum bit rate: 6 375 kb/s
Width: 1 280 pixels
Height: 720 pixels
Display aspect ratio: 16:9
Frame rate mode: Constant
Frame rate: 24.000 FPS
Color space: YUV
Chroma subsampling: 4:2:0
Bit depth: 8 bits
Scan type: Progressive
Bits/(Pixel*Frame): 0.135
Time code of first frame: 00:00:00:0000000000
Stream size: 1.02 GiB (79%)
Default: Yes
Forced: No
Color range: Limited
Color primaries: BT.709
Transfer characteristics: BT.709
Matrix coefficients: BT.709

Audio
ID: 2
Format: E-AC-3 JOC
Format/Info: Enhanced AC-3 with Joint Object Coding
Commercial name: Dolby Digital Plus with Dolby Atmos
Codec ID: A_EAC3
Duration: 48 min 51 s
Bit rate mode: Constant
Bit rate: 768 kb/s
Channel(s): 6 channels
Channel layout: L R C LFE Ls Rs
Sampling rate: 48.0 kHz
Frame rate: 31.250 FPS (1536 SPF)
Compression mode: Lossy
Stream size: 268 MiB (20%)
Language: English
Service kind: Complete Main
Default: Yes
Forced: No
Complexity index: 16
Number of dynamic objects: 15
Bed channel count: 1 channel
Bed channel configuration: LFE

Text #1
ID: 3
Format: UTF-8
Codec ID: S_TEXT/UTF8
Codec ID/Info: UTF-8 Plain Text
Duration: 47 min 41 s
Bit rate: 46 b/s
Frame rate: 0.195 FPS
Count of elements: 558
Stream size: 16.4 KiB (0%)
Language: Czech
Default: No
Forced: No

Text #2
ID: 4
Format: UTF-8
Codec ID: S_TEXT/UTF8
Codec ID/Info: UTF-8 Plain Text
Duration: 47 min 41 s
Bit rate: 51 b/s
Frame rate: 0.142 FPS
Count of elements: 407
Stream size: 17.8 KiB (0%)
Language: Danish
Default: No
Forced: No

Text #3
ID: 5
Format: UTF-8
Codec ID: S_TEXT/UTF8
Codec ID/Info: UTF-8 Plain Text
Duration: 47 min 41 s
Bit rate: 57 b/s
Frame rate: 0.194 FPS
Count of elements: 556
Stream size: 20.0 KiB (0%)
Language: German
Default: No
Forced: No

Text #4
ID: 6
Format: UTF-8
Codec ID: S_TEXT/UTF8
Codec ID/Info: UTF-8 Plain Text
Duration: 47 min 41 s
Bit rate: 80 b/s
Frame rate: 0.194 FPS
Count of elements: 555
Stream size: 28.1 KiB (0%)
Language: Greek
Default: No
Forced: No

Text #5
ID: 7
Format: UTF-8
Codec ID: S_TEXT/UTF8
Codec ID/Info: UTF-8 Plain Text
Duration: 45 min 24 s
Bit rate: 56 b/s
Frame rate: 0.208 FPS
Count of elements: 567
Stream size: 18.7 KiB (0%)
Language: English
Default: No
Forced: No

Text #6
ID: 8
Format: UTF-8
Codec ID: S_TEXT/UTF8
Codec ID/Info: UTF-8 Plain Text
Duration: 47 min 4 s
Bit rate: 59 b/s
Frame rate: 0.224 FPS
Count of elements: 633
Stream size: 20.4 KiB (0%)
Title: British (SDH)
Language: English
Default: No
Forced: No

Text #7
ID: 9
Format: UTF-8
Codec ID: S_TEXT/UTF8
Codec ID/Info: UTF-8 Plain Text
Duration: 47 min 41 s
Bit rate: 50 b/s
Frame rate: 0.197 FPS
Count of elements: 564
Stream size: 17.6 KiB (0%)
Title: European
Language: Spanish
Default: No
Forced: No

Text #8
ID: 10
Format: UTF-8
Codec ID: S_TEXT/UTF8
Codec ID/Info: UTF-8 Plain Text
Duration: 47 min 41 s
Bit rate: 46 b/s
Frame rate: 0.189 FPS
Count of elements: 542
Stream size: 16.2 KiB (0%)
Language: Finnish
Default: No
Forced: No

Text #9
ID: 11
Format: UTF-8
Codec ID: S_TEXT/UTF8
Codec ID/Info: UTF-8 Plain Text
Duration: 47 min 41 s
Bit rate: 54 b/s
Frame rate: 0.197 FPS
Count of elements: 564
Stream size: 19.1 KiB (0%)
Title: European
Language: French
Default: No
Forced: No

Text #10
ID: 12
Format: UTF-8
Codec ID: S_TEXT/UTF8
Codec ID/Info: UTF-8 Plain Text
Duration: 47 min 41 s
Bit rate: 49 b/s
Frame rate: 0.198 FPS
Count of elements: 566
Stream size: 17.3 KiB (0%)
Language: Hungarian
Default: No
Forced: No

Text #11
ID: 13
Format: UTF-8
Codec ID: S_TEXT/UTF8
Codec ID/Info: UTF-8 Plain Text
Duration: 47 min 41 s
Bit rate: 50 b/s
Frame rate: 0.189 FPS
Count of elements: 540
Stream size: 17.5 KiB (0%)
Language: Italian
Default: No
Forced: No

Text #12
ID: 14
Format: UTF-8
Codec ID: S_TEXT/UTF8
Codec ID/Info: UTF-8 Plain Text
Duration: 47 min 41 s
Bit rate: 46 b/s
Frame rate: 0.184 FPS
Count of elements: 525
Stream size: 16.3 KiB (0%)
Language: Dutch
Default: No
Forced: No

Text #13
ID: 15
Format: UTF-8
Codec ID: S_TEXT/UTF8
Codec ID/Info: UTF-8 Plain Text
Duration: 47 min 41 s
Bit rate: 50 b/s
Frame rate: 0.136 FPS
Count of elements: 388
Stream size: 17.7 KiB (0%)
Language: Norwegian
Default: No
Forced: No

Text #14
ID: 16
Format: UTF-8
Codec ID: S_TEXT/UTF8
Codec ID/Info: UTF-8 Plain Text
Duration: 47 min 41 s
Bit rate: 46 b/s
Frame rate: 0.197 FPS
Count of elements: 564
Stream size: 16.2 KiB (0%)
Language: Polish
Default: No
Forced: No

Text #15
ID: 17
Format: UTF-8
Codec ID: S_TEXT/UTF8
Codec ID/Info: UTF-8 Plain Text
Duration: 47 min 41 s
Bit rate: 51 b/s
Frame rate: 0.197 FPS
Count of elements: 564
Stream size: 18.1 KiB (0%)
Title: European
Language: Portuguese
Default: No
Forced: No

Text #16
ID: 18
Format: UTF-8
Codec ID: S_TEXT/UTF8
Codec ID/Info: UTF-8 Plain Text
Duration: 47 min 41 s
Bit rate: 48 b/s
Frame rate: 0.166 FPS
Count of elements: 474
Stream size: 17.0 KiB (0%)
Language: Romanian
Default: No
Forced: No

Text #17
ID: 19
Format: UTF-8
Codec ID: S_TEXT/UTF8
Codec ID/Info: UTF-8 Plain Text
Duration: 47 min 41 s
Bit rate: 47 b/s
Frame rate: 0.197 FPS
Count of elements: 565
Stream size: 16.8 KiB (0%)
Language: Slovak
Default: No
Forced: No

Text #18
ID: 20
Format: UTF-8
Codec ID: S_TEXT/UTF8
Codec ID/Info: UTF-8 Plain Text
Duration: 47 min 41 s
Bit rate: 51 b/s
Frame rate: 0.157 FPS
Count of elements: 448
Stream size: 17.8 KiB (0%)
Language: Swedish
Default: No
Forced: No

Text #19
ID: 21
Format: UTF-8
Codec ID: S_TEXT/UTF8
Codec ID/Info: UTF-8 Plain Text
Duration: 47 min 41 s
Bit rate: 51 b/s
Frame rate: 0.198 FPS
Count of elements: 566
Stream size: 18.0 KiB (0%)
Language: Turkish
Default: No
Forced: No

Menu
00:01:31.625: en:Intro
00:01:36.208: en:Scene 1
00:47:35.667: en:Credits

ssl  EZTV RSS EZTV Status | EZTV API | DMCA: [email protected]