eztvx.to | eztvstatus.org
Search title:  
TV Packs only
 

Shardlake S01E01 720p DSNP WEB-DL DD 5 1 Atmos H 264-playWEB EZTV

Episode Breakdown
Shardlake
Shardlake TV Show S01E01

Season: 1
Episode: 1
Air Date: 1 May, 2024
Download Links
     Torrent Download     Magnet Download
     Anonymous Download
Added 1 month ago by eztv (verified).
Tracker Statistics
Seeds: 2
Peers: 0
Stats generated @ 19:34 on 14th Jun 2024
Torrent Info
Torrent File: Shardlake S01E01 720p DSNP WEB-DL DD 5 1 Atmos H 264-playWEB[EZTVx.to].mkv
Torrent Hash: AFFB82FC5AD1604F216E740DFA2987FED0445424
Filesize: 1.37 GB
Released: 1st May 2024

File Format: MKV (Matroska)
Resolution: 1280x720 px
Aspect Ratio: 16:9
Alternate Releases S L
Shardlake S01E01 1080p WEB H264-SuccessfulCrab 16 11
Shardlake S01E01 1080p HEVC x265-MeGusta 29 11
Shardlake S01E01 XviD-AFG 9 1
Shardlake S01E01 Episode 1 1080p DSNP WEB-DL DDP5 1 Atmos H 264-FLUX 4 1
Shardlake S01E01 720p x265-T0PAZ 4 1
Shardlake S01E01 1080p x265-ELiTE 3 2
Shardlake S01E01 Episode 1 1080p WEBRip HDR10 10Bit DDP5 1 HEVC-d3g 1 4

Shardlake S01E01 - Episode 1

Summary:

Shardlake travels to Scarnsea to begin his investigation into a brutal murder at a remote monastery.



Shardlake S01E01 720p DSNP WEB-DL DD 5 1 Atmos H 264-playWEB EZTV
Shardlake S1E1 Screenshot


General
Unique ID: 219107904157506953959167428983496081451 (0xA4D6A5B9D618AE6D1BF11A7A519F802B)
Complete name: Shardlake S01E01 720p DSNP WEB-DL DD 5 1 Atmos H 264-playWEB.mkv
Format: Matroska
Format version: Version 4
File size: 1.37 GiB
Duration: 51 min 31 s
Overall bit rate mode: Variable
Overall bit rate: 3 800 kb/s
Frame rate: 24.000 FPS
Writing application: mkvmerge v83.0 ('Circle Of Friends') 64-bit
Writing library: libebml v1.4.5 + libmatroska v1.7.1

Video
ID: 1
Format: AVC
Format/Info: Advanced Video Codec
Format profile: [email protected]
Format settings: CABAC / 4 Ref Frames
Format settings, CABAC: Yes
Format settings, Reference frames: 4 frames
Codec ID: V_MPEG4/ISO/AVC
Duration: 51 min 31 s
Bit rate mode: Variable
Bit rate: 3 028 kb/s
Maximum bit rate: 6 375 kb/s
Width: 1 280 pixels
Height: 720 pixels
Display aspect ratio: 16:9
Frame rate mode: Constant
Frame rate: 24.000 FPS
Color space: YUV
Chroma subsampling: 4:2:0
Bit depth: 8 bits
Scan type: Progressive
Bits/(Pixel*Frame): 0.137
Time code of first frame: 00:00:00:0000000000
Stream size: 1.09 GiB (80%)
Default: Yes
Forced: No
Color range: Limited
Color primaries: BT.709
Transfer characteristics: BT.709
Matrix coefficients: BT.709

Audio
ID: 2
Format: E-AC-3 JOC
Format/Info: Enhanced AC-3 with Joint Object Coding
Commercial name: Dolby Digital Plus with Dolby Atmos
Codec ID: A_EAC3
Duration: 51 min 31 s
Bit rate mode: Constant
Bit rate: 768 kb/s
Channel(s): 6 channels
Channel layout: L R C LFE Ls Rs
Sampling rate: 48.0 kHz
Frame rate: 31.250 FPS (1536 SPF)
Compression mode: Lossy
Stream size: 283 MiB (20%)
Language: English
Service kind: Complete Main
Default: Yes
Forced: No
Complexity index: 16
Number of dynamic objects: 15
Bed channel count: 1 channel
Bed channel configuration: LFE

Text #1
ID: 3
Format: UTF-8
Codec ID: S_TEXT/UTF8
Codec ID/Info: UTF-8 Plain Text
Duration: 51 min 19 s
Bit rate: 45 b/s
Frame rate: 0.194 FPS
Count of elements: 596
Stream size: 17.2 KiB (0%)
Language: Czech
Default: No
Forced: No

Text #2
ID: 4
Format: UTF-8
Codec ID: S_TEXT/UTF8
Codec ID/Info: UTF-8 Plain Text
Duration: 51 min 11 s
Bit rate: 48 b/s
Frame rate: 0.150 FPS
Count of elements: 460
Stream size: 18.1 KiB (0%)
Language: Danish
Default: No
Forced: No

Text #3
ID: 5
Format: UTF-8
Codec ID: S_TEXT/UTF8
Codec ID/Info: UTF-8 Plain Text
Duration: 51 min 11 s
Bit rate: 55 b/s
Frame rate: 0.195 FPS
Count of elements: 598
Stream size: 20.8 KiB (0%)
Language: German
Default: No
Forced: No

Text #4
ID: 6
Format: UTF-8
Codec ID: S_TEXT/UTF8
Codec ID/Info: UTF-8 Plain Text
Duration: 51 min 19 s
Bit rate: 81 b/s
Frame rate: 0.191 FPS
Count of elements: 588
Stream size: 30.5 KiB (0%)
Language: Greek
Default: No
Forced: No

Text #5
ID: 7
Format: UTF-8
Codec ID: S_TEXT/UTF8
Codec ID/Info: UTF-8 Plain Text
Duration: 46 min 28 s
Bit rate: 57 b/s
Frame rate: 0.217 FPS
Count of elements: 605
Stream size: 19.7 KiB (0%)
Language: English
Default: No
Forced: No

Text #6
ID: 8
Format: UTF-8
Codec ID: S_TEXT/UTF8
Codec ID/Info: UTF-8 Plain Text
Duration: 49 min 14 s
Bit rate: 60 b/s
Frame rate: 0.237 FPS
Count of elements: 701
Stream size: 21.9 KiB (0%)
Title: British (SDH)
Language: English
Default: No
Forced: No

Text #7
ID: 9
Format: UTF-8
Codec ID: S_TEXT/UTF8
Codec ID/Info: UTF-8 Plain Text
Duration: 51 min 19 s
Bit rate: 50 b/s
Frame rate: 0.195 FPS
Count of elements: 601
Stream size: 19.0 KiB (0%)
Title: European
Language: Spanish
Default: No
Forced: No

Text #8
ID: 10
Format: UTF-8
Codec ID: S_TEXT/UTF8
Codec ID/Info: UTF-8 Plain Text
Duration: 51 min 19 s
Bit rate: 46 b/s
Frame rate: 0.180 FPS
Count of elements: 553
Stream size: 17.5 KiB (0%)
Language: Finnish
Default: No
Forced: No

Text #9
ID: 11
Format: UTF-8
Codec ID: S_TEXT/UTF8
Codec ID/Info: UTF-8 Plain Text
Duration: 51 min 19 s
Bit rate: 53 b/s
Frame rate: 0.194 FPS
Count of elements: 596
Stream size: 20.2 KiB (0%)
Title: European
Language: French
Default: No
Forced: No

Text #10
ID: 12
Format: UTF-8
Codec ID: S_TEXT/UTF8
Codec ID/Info: UTF-8 Plain Text
Duration: 51 min 19 s
Bit rate: 50 b/s
Frame rate: 0.196 FPS
Count of elements: 604
Stream size: 18.9 KiB (0%)
Language: Hungarian
Default: No
Forced: No

Text #11
ID: 13
Format: UTF-8
Codec ID: S_TEXT/UTF8
Codec ID/Info: UTF-8 Plain Text
Duration: 51 min 19 s
Bit rate: 49 b/s
Frame rate: 0.189 FPS
Count of elements: 581
Stream size: 18.8 KiB (0%)
Language: Italian
Default: No
Forced: No

Text #12
ID: 14
Format: UTF-8
Codec ID: S_TEXT/UTF8
Codec ID/Info: UTF-8 Plain Text
Duration: 51 min 19 s
Bit rate: 44 b/s
Frame rate: 0.177 FPS
Count of elements: 545
Stream size: 16.9 KiB (0%)
Language: Dutch
Default: No
Forced: No

Text #13
ID: 15
Format: UTF-8
Codec ID: S_TEXT/UTF8
Codec ID/Info: UTF-8 Plain Text
Duration: 51 min 11 s
Bit rate: 50 b/s
Frame rate: 0.136 FPS
Count of elements: 417
Stream size: 19.0 KiB (0%)
Language: Norwegian
Default: No
Forced: No

Text #14
ID: 16
Format: UTF-8
Codec ID: S_TEXT/UTF8
Codec ID/Info: UTF-8 Plain Text
Duration: 51 min 19 s
Bit rate: 45 b/s
Frame rate: 0.196 FPS
Count of elements: 603
Stream size: 17.1 KiB (0%)
Language: Polish
Default: No
Forced: No

Text #15
ID: 17
Format: UTF-8
Codec ID: S_TEXT/UTF8
Codec ID/Info: UTF-8 Plain Text
Duration: 51 min 19 s
Bit rate: 51 b/s
Frame rate: 0.196 FPS
Count of elements: 603
Stream size: 19.4 KiB (0%)
Title: European
Language: Portuguese
Default: No
Forced: No

Text #16
ID: 18
Format: UTF-8
Codec ID: S_TEXT/UTF8
Codec ID/Info: UTF-8 Plain Text
Duration: 51 min 19 s
Bit rate: 49 b/s
Frame rate: 0.146 FPS
Count of elements: 450
Stream size: 18.7 KiB (0%)
Language: Romanian
Default: No
Forced: No

Text #17
ID: 19
Format: UTF-8
Codec ID: S_TEXT/UTF8
Codec ID/Info: UTF-8 Plain Text
Duration: 51 min 19 s
Bit rate: 49 b/s
Frame rate: 0.196 FPS
Count of elements: 602
Stream size: 18.7 KiB (0%)
Language: Slovak
Default: No
Forced: No

Text #18
ID: 20
Format: UTF-8
Codec ID: S_TEXT/UTF8
Codec ID/Info: UTF-8 Plain Text
Duration: 51 min 11 s
Bit rate: 49 b/s
Frame rate: 0.175 FPS
Count of elements: 538
Stream size: 18.7 KiB (0%)
Language: Swedish
Default: No
Forced: No

Text #19
ID: 21
Format: UTF-8
Codec ID: S_TEXT/UTF8
Codec ID/Info: UTF-8 Plain Text
Duration: 51 min 19 s
Bit rate: 51 b/s
Frame rate: 0.196 FPS
Count of elements: 603
Stream size: 19.5 KiB (0%)
Language: Turkish
Default: No
Forced: No

Menu
00:01:47.250: en:Intro
00:01:56.292: en:Scene 1
00:50:13.417: en:Credits

ssl  EZTV RSS EZTV Status | EZTV API | DMCA: [email protected]