eztvx.to | eztvstatus.org
Search title:  
TV Packs only
 

Dead Boy Detectives S01E07 The Case of the Very Long Stairway 1080p NF WEB-DL DDP5 1 H 264-NTb EZTV

Episode Breakdown
Dead Boy Detectives
Dead Boy Detectives TV Show S01E07

Season: 1
Episode: 7
Air Date: 25 April, 2024
Download Links
     Torrent Download     Magnet Download
     Anonymous Download
Added 1 month ago by eztv (verified).
Tracker Statistics
Seeds: 23
Peers: 5
Stats generated @ 14:31 on 24th Jun 2024
Torrent Info
Torrent File: Dead Boy Detectives S01E07 The Case of the Very Long Stairway 1080p NF WEB-DL DDP5 1 H 264-NTb[EZTVx.to].mkv
Torrent Hash: F169ADCACB451B615117552165722E457A5F15E2
Filesize: 2.22 GB
Released: 25th Apr 2024

File Format: MKV (Matroska)
Resolution: 1920x1080 px
Aspect Ratio: 16:9
Alternate Releases S L
Dead Boy Detectives S01E07 1080p WEB H264-LAZYCUNTS 6 2
Dead Boy Detectives S01E07 XviD-AFG 6 2
Dead Boy Detectives S01E07 The Case of the Very Long Stairway 1080p WEBRip HDR10 10Bit DDP5 1 Atmos HEVC-d3g 7 1
Dead Boy Detectives S01E07 FINAL MULTI 1080p WEB x264-HiggsBoson 5 1

Dead Boy Detectives S01E07 - The Case of the Very Long Stairway

Summary:

When Edwin gets caught in a frightening situation, Charles relies on his best mate's meticulous notes to find him. A determined Crystal confronts her ex.



Dead Boy Detectives S01E07 The Case of the Very Long Stairway 1080p NF WEB-DL DDP5 1 H 264-NTb EZTV
Dead Boy Detectives S1E7 Screenshot


General
Unique ID: 29088186998290808164584310525361616931 (0x15E22E586D6734C13AB2A604EDC37823)
Complete name: Dead Boy Detectives S01E07 The Case of the Very Long Stairway 1080p NF WEB-DL DDP5 1 H 264-NTb.mkv
Format: Matroska
Format version: Version 4
File size: 2.22 GiB
Duration: 57 min 29 s
Overall bit rate mode: Variable
Overall bit rate: 5 538 kb/s
Frame rate: 23.976 FPS
Writing application: mkvmerge v79.0 ('Funeral Pyres') 64-bit
Writing library: libebml v1.4.4 + libmatroska v1.7.1

Video
ID: 1
Format: AVC
Format/Info: Advanced Video Codec
Format profile: Main@L4
Format settings: CABAC / 3 Ref Frames
Format settings, CABAC: Yes
Format settings, Reference frames: 3 frames
Codec ID: V_MPEG4/ISO/AVC
Duration: 57 min 29 s
Bit rate mode: Variable
Bit rate: 5 000 kb/s
Maximum bit rate: 7 500 kb/s
Width: 1 920 pixels
Height: 1 080 pixels
Display aspect ratio: 16:9
Frame rate mode: Constant
Frame rate: 23.976 (24000/1001) FPS
Color space: YUV
Chroma subsampling: 4:2:0
Bit depth: 8 bits
Scan type: Progressive
Bits/(Pixel*Frame): 0.101
Stream size: 1.91 GiB (86%)
Writing library: x264 core 148 r2727 7d026e8
Encoding settings: cabac=1 / ref=3 / deblock=1:0:0 / analyse=0x1:0x111 / me=umh / subme=10 / psy=1 / psy_rd=1.00:0.00 / mixed_ref=1 / me_range=24 / chroma_me=1 / trellis=2 / 8x8dct=0 / cqm=0 / deadzone=21,11 / fast_pskip=1 / chroma_qp_offset=-2 / threads=6 / lookahead_threads=1 / sliced_threads=0 / nr=0 / decimate=1 / interlaced=0 / bluray_compat=0 / stitchable=1 / constrained_intra=0 / bframes=2 / b_pyramid=0 / b_adapt=2 / b_bias=0 / direct=3 / weightb=1 / open_gop=0 / weightp=2 / keyint=240 / keyint_min=121 / scenecut=0 / intra_refresh=0 / rc_lookahead=48 / rc=2pass / mbtree=1 / bitrate=5000 / ratetol=1.0 / qcomp=0.50 / qpmin=6 / qpmax=51 / qpstep=4 / cplxblur=20.0 / qblur=0.5 / vbv_maxrate=7500 / vbv_bufsize=10000 / nal_hrd=vbr / filler=0 / ip_ratio=1.40 / aq=1:1.00
Default: Yes
Forced: No

Audio
ID: 2
Format: E-AC-3 JOC
Format/Info: Enhanced AC-3 with Joint Object Coding
Commercial name: Dolby Digital Plus with Dolby Atmos
Codec ID: A_EAC3
Duration: 57 min 29 s
Bit rate mode: Constant
Bit rate: 768 kb/s
Channel(s): 6 channels
Channel layout: L R C LFE Ls Rs
Sampling rate: 48.0 kHz
Frame rate: 31.250 FPS (1536 SPF)
Compression mode: Lossy
Stream size: 316 MiB (14%)
Language: English
Service kind: Complete Main
Default: Yes
Forced: No
Complexity index: 16
Number of dynamic objects: 15
Bed channel count: 1 channel
Bed channel configuration: LFE

Text #1
ID: 3
Format: UTF-8
Codec ID: S_TEXT/UTF8
Codec ID/Info: UTF-8 Plain Text
Duration: 54 min 34 s
Bit rate: 60 b/s
Frame rate: 0.228 FPS
Count of elements: 747
Stream size: 24.1 KiB (0%)
Language: English
Default: No
Forced: No

Text #2
ID: 4
Format: UTF-8
Codec ID: S_TEXT/UTF8
Codec ID/Info: UTF-8 Plain Text
Duration: 54 min 34 s
Bit rate: 68 b/s
Frame rate: 0.277 FPS
Count of elements: 906
Stream size: 27.3 KiB (0%)
Title: SDH
Language: English
Default: No
Forced: No

Text #3
ID: 5
Format: UTF-8
Codec ID: S_TEXT/UTF8
Codec ID/Info: UTF-8 Plain Text
Duration: 54 min 59 s
Bit rate: 79 b/s
Frame rate: 0.219 FPS
Count of elements: 724
Stream size: 31.9 KiB (0%)
Language: Arabic
Default: No
Forced: No

Text #4
ID: 6
Format: UTF-8
Codec ID: S_TEXT/UTF8
Codec ID/Info: UTF-8 Plain Text
Duration: 54 min 59 s
Bit rate: 53 b/s
Frame rate: 0.192 FPS
Count of elements: 634
Stream size: 21.5 KiB (0%)
Language: Catalan
Default: No
Forced: No

Text #5
ID: 7
Format: UTF-8
Codec ID: S_TEXT/UTF8
Codec ID/Info: UTF-8 Plain Text
Duration: 54 min 59 s
Bit rate: 55 b/s
Frame rate: 0.219 FPS
Count of elements: 722
Stream size: 22.3 KiB (0%)
Language: Czech
Default: No
Forced: No

Text #6
ID: 8
Format: UTF-8
Codec ID: S_TEXT/UTF8
Codec ID/Info: UTF-8 Plain Text
Duration: 54 min 59 s
Bit rate: 50 b/s
Frame rate: 0.218 FPS
Count of elements: 719
Stream size: 20.5 KiB (0%)
Language: Danish
Default: No
Forced: No

Text #7
ID: 9
Format: UTF-8
Codec ID: S_TEXT/UTF8
Codec ID/Info: UTF-8 Plain Text
Duration: 54 min 59 s
Bit rate: 54 b/s
Frame rate: 0.218 FPS
Count of elements: 719
Stream size: 21.8 KiB (0%)
Language: German
Default: No
Forced: No

Text #8
ID: 10
Format: UTF-8
Codec ID: S_TEXT/UTF8
Codec ID/Info: UTF-8 Plain Text
Duration: 54 min 59 s
Bit rate: 88 b/s
Frame rate: 0.219 FPS
Count of elements: 723
Stream size: 35.7 KiB (0%)
Language: Greek
Default: No
Forced: No

Text #9
ID: 11
Format: UTF-8
Codec ID: S_TEXT/UTF8
Codec ID/Info: UTF-8 Plain Text
Duration: 54 min 59 s
Bit rate: 51 b/s
Frame rate: 0.219 FPS
Count of elements: 723
Stream size: 20.9 KiB (0%)
Title: Spanish (Latin America)
Language: Spanish (Latin America)
Default: No
Forced: No

Text #10
ID: 12
Format: UTF-8
Codec ID: S_TEXT/UTF8
Codec ID/Info: UTF-8 Plain Text
Duration: 54 min 59 s
Bit rate: 52 b/s
Frame rate: 0.219 FPS
Count of elements: 723
Stream size: 21.0 KiB (0%)
Title: Spanish (Spain)
Language: Spanish (ES)
Default: No
Forced: No

Text #11
ID: 13
Format: UTF-8
Codec ID: S_TEXT/UTF8
Codec ID/Info: UTF-8 Plain Text
Duration: 54 min 59 s
Bit rate: 51 b/s
Frame rate: 0.214 FPS
Count of elements: 707
Stream size: 20.7 KiB (0%)
Language: Basque
Default: No
Forced: No

Text #12
ID: 14
Format: UTF-8
Codec ID: S_TEXT/UTF8
Codec ID/Info: UTF-8 Plain Text
Duration: 54 min 59 s
Bit rate: 50 b/s
Frame rate: 0.218 FPS
Count of elements: 720
Stream size: 20.3 KiB (0%)
Language: Finnish
Default: No
Forced: No

Text #13
ID: 15
Format: UTF-8
Codec ID: S_TEXT/UTF8
Codec ID/Info: UTF-8 Plain Text
Duration: 54 min 59 s
Bit rate: 51 b/s
Frame rate: 0.218 FPS
Count of elements: 720
Stream size: 20.6 KiB (0%)
Language: Filipino
Default: No
Forced: No

Text #14
ID: 16
Format: UTF-8
Codec ID: S_TEXT/UTF8
Codec ID/Info: UTF-8 Plain Text
Duration: 54 min 59 s
Bit rate: 52 b/s
Frame rate: 0.219 FPS
Count of elements: 721
Stream size: 21.1 KiB (0%)
Language: French
Default: No
Forced: No

Text #15
ID: 17
Format: UTF-8
Codec ID: S_TEXT/UTF8
Codec ID/Info: UTF-8 Plain Text
Duration: 54 min 59 s
Bit rate: 49 b/s
Frame rate: 0.218 FPS
Count of elements: 720
Stream size: 19.8 KiB (0%)
Language: Galician
Default: No
Forced: No

Text #16
ID: 18
Format: UTF-8
Codec ID: S_TEXT/UTF8
Codec ID/Info: UTF-8 Plain Text
Duration: 54 min 59 s
Bit rate: 79 b/s
Frame rate: 0.219 FPS
Count of elements: 724
Stream size: 32.0 KiB (0%)
Language: Hebrew
Default: No
Forced: No

Text #17
ID: 19
Format: UTF-8
Codec ID: S_TEXT/UTF8
Codec ID/Info: UTF-8 Plain Text
Duration: 54 min 59 s
Bit rate: 50 b/s
Frame rate: 0.218 FPS
Count of elements: 720
Stream size: 20.1 KiB (0%)
Language: Croatian
Default: No
Forced: No

Text #18
ID: 20
Format: UTF-8
Codec ID: S_TEXT/UTF8
Codec ID/Info: UTF-8 Plain Text
Duration: 54 min 59 s
Bit rate: 54 b/s
Frame rate: 0.219 FPS
Count of elements: 722
Stream size: 21.9 KiB (0%)
Language: Hungarian
Default: No
Forced: No

Text #19
ID: 21
Format: UTF-8
Codec ID: S_TEXT/UTF8
Codec ID/Info: UTF-8 Plain Text
Duration: 54 min 59 s
Bit rate: 52 b/s
Frame rate: 0.219 FPS
Count of elements: 721
Stream size: 21.3 KiB (0%)
Language: Indonesian
Default: No
Forced: No

Text #20
ID: 22
Format: UTF-8
Codec ID: S_TEXT/UTF8
Codec ID/Info: UTF-8 Plain Text
Duration: 54 min 59 s
Bit rate: 51 b/s
Frame rate: 0.218 FPS
Count of elements: 720
Stream size: 20.7 KiB (0%)
Language: Italian
Default: No
Forced: No

Text #21
ID: 23
Format: UTF-8
Codec ID: S_TEXT/UTF8
Codec ID/Info: UTF-8 Plain Text
Duration: 54 min 59 s
Bit rate: 48 b/s
Frame rate: 0.213 FPS
Count of elements: 703
Stream size: 19.7 KiB (0%)
Language: Japanese
Default: No
Forced: No

Text #22
ID: 24
Format: UTF-8
Codec ID: S_TEXT/UTF8
Codec ID/Info: UTF-8 Plain Text
Duration: 54 min 59 s
Bit rate: 59 b/s
Frame rate: 0.219 FPS
Count of elements: 721
Stream size: 24.1 KiB (0%)
Language: Korean
Default: No
Forced: No

Text #23
ID: 25
Format: UTF-8
Codec ID: S_TEXT/UTF8
Codec ID/Info: UTF-8 Plain Text
Duration: 54 min 59 s
Bit rate: 52 b/s
Frame rate: 0.219 FPS
Count of elements: 721
Stream size: 21.1 KiB (0%)
Language: Malay
Default: No
Forced: No

Text #24
ID: 26
Format: UTF-8
Codec ID: S_TEXT/UTF8
Codec ID/Info: UTF-8 Plain Text
Duration: 54 min 59 s
Bit rate: 50 b/s
Frame rate: 0.218 FPS
Count of elements: 720
Stream size: 20.3 KiB (0%)
Language: Norwegian Bokmal
Default: No
Forced: No

Text #25
ID: 27
Format: UTF-8
Codec ID: S_TEXT/UTF8
Codec ID/Info: UTF-8 Plain Text
Duration: 54 min 59 s
Bit rate: 52 b/s
Frame rate: 0.209 FPS
Count of elements: 688
Stream size: 21.3 KiB (0%)
Language: Dutch
Default: No
Forced: No

Text #26
ID: 28
Format: UTF-8
Codec ID: S_TEXT/UTF8
Codec ID/Info: UTF-8 Plain Text
Duration: 54 min 59 s
Bit rate: 51 b/s
Frame rate: 0.219 FPS
Count of elements: 721
Stream size: 20.7 KiB (0%)
Language: Polish
Default: No
Forced: No

Text #27
ID: 29
Format: UTF-8
Codec ID: S_TEXT/UTF8
Codec ID/Info: UTF-8 Plain Text
Duration: 54 min 59 s
Bit rate: 51 b/s
Frame rate: 0.219 FPS
Count of elements: 721
Stream size: 20.6 KiB (0%)
Title: Portuguese (Brazil)
Language: Portuguese (BR)
Default: No
Forced: No

Text #28
ID: 30
Format: UTF-8
Codec ID: S_TEXT/UTF8
Codec ID/Info: UTF-8 Plain Text
Duration: 54 min 59 s
Bit rate: 53 b/s
Frame rate: 0.218 FPS
Count of elements: 720
Stream size: 21.6 KiB (0%)
Title: Portuguese (Portugal)
Language: Portuguese (PT)
Default: No
Forced: No

Text #29
ID: 31
Format: UTF-8
Codec ID: S_TEXT/UTF8
Codec ID/Info: UTF-8 Plain Text
Duration: 54 min 59 s
Bit rate: 51 b/s
Frame rate: 0.217 FPS
Count of elements: 715
Stream size: 20.8 KiB (0%)
Language: Romanian
Default: No
Forced: No

Text #30
ID: 32
Format: UTF-8
Codec ID: S_TEXT/UTF8
Codec ID/Info: UTF-8 Plain Text
Duration: 54 min 59 s
Bit rate: 90 b/s
Frame rate: 0.219 FPS
Count of elements: 724
Stream size: 36.4 KiB (0%)
Language: Russian
Default: No
Forced: No

Text #31
ID: 33
Format: UTF-8
Codec ID: S_TEXT/UTF8
Codec ID/Info: UTF-8 Plain Text
Duration: 54 min 59 s
Bit rate: 52 b/s
Frame rate: 0.217 FPS
Count of elements: 715
Stream size: 21.1 KiB (0%)
Language: Swedish
Default: No
Forced: No

Text #32
ID: 34
Format: UTF-8
Codec ID: S_TEXT/UTF8
Codec ID/Info: UTF-8 Plain Text
Duration: 54 min 59 s
Bit rate: 134 b/s
Frame rate: 0.219 FPS
Count of elements: 724
Stream size: 54.3 KiB (0%)
Language: Thai
Default: No
Forced: No

Text #33
ID: 35
Format: UTF-8
Codec ID: S_TEXT/UTF8
Codec ID/Info: UTF-8 Plain Text
Duration: 54 min 59 s
Bit rate: 54 b/s
Frame rate: 0.219 FPS
Count of elements: 722
Stream size: 21.8 KiB (0%)
Language: Turkish
Default: No
Forced: No

Text #34
ID: 36
Format: UTF-8
Codec ID: S_TEXT/UTF8
Codec ID/Info: UTF-8 Plain Text
Duration: 54 min 59 s
Bit rate: 96 b/s
Frame rate: 0.219 FPS
Count of elements: 722
Stream size: 39.0 KiB (0%)
Language: Ukrainian
Default: No
Forced: No

Text #35
ID: 37
Format: UTF-8
Codec ID: S_TEXT/UTF8
Codec ID/Info: UTF-8 Plain Text
Duration: 54 min 59 s
Bit rate: 70 b/s
Frame rate: 0.219 FPS
Count of elements: 723
Stream size: 28.3 KiB (0%)
Language: Vietnamese
Default: No
Forced: No

Text #36
ID: 38
Format: UTF-8
Codec ID: S_TEXT/UTF8
Codec ID/Info: UTF-8 Plain Text
Duration: 54 min 59 s
Bit rate: 55 b/s
Frame rate: 0.219 FPS
Count of elements: 723
Stream size: 22.5 KiB (0%)
Title: Chinese (Simplified)
Language: Chinese (Simplified)
Default: No
Forced: No

Text #37
ID: 39
Format: UTF-8
Codec ID: S_TEXT/UTF8
Codec ID/Info: UTF-8 Plain Text
Duration: 54 min 59 s
Bit rate: 49 b/s
Frame rate: 0.219 FPS
Count of elements: 723
Stream size: 19.8 KiB (0%)
Title: Chinese (Traditional)
Language: Chinese (Traditional)
Default: No
Forced: No

Menu
00:00:05.005: en:Recap
00:01:15.033: en:Chapter 1
00:05:24.324: en:Intro
00:54:23.000: en:Credits

ssl  EZTV RSS EZTV Status | EZTV API | DMCA: [email protected]