eztvx.to | eztvstatus.org
Search title:  
TV Packs only
 

The Spiderwick Chronicles S01E06 1028 Teeth 1080p ROKU WEB-DL DD5 1 H 264-FLUX EZTV

Episode Breakdown
The Spiderwick Chronicles
The Spiderwick Chronicles TV Show S01E06

Season: 1
Episode: 6
Air Date: 19 April, 2024
Download Links
     Torrent Download     Magnet Download
     Anonymous Download
Added 1 month ago by eztv (verified).
Tracker Statistics
Seeds: 8
Peers: 5
Stats generated @ 19:59 on 14th Jun 2024
Torrent Info
Torrent File: The Spiderwick Chronicles S01E06 1028 Teeth 1080p ROKU WEB-DL DD5 1 H 264-FLUX[EZTVx.to].mkv
Torrent Hash: 445B63C2FF240349DCB48CCBBDE17D9B88272ECC
Filesize: 1.04 GB
Released: 21st Apr 2024

File Format: MKV (Matroska)
Resolution: 1920x1080 px
Aspect Ratio: 16:9
Alternate Releases S L
The Spiderwick Chronicles S01E06 1080p WEB h264-EDITH 14 1
The Spiderwick Chronicles S01E06 XviD-AFG 6 3
The Spiderwick Chronicles S01E06 1080p HEVC x265-MeGusta 14 1
The Spiderwick Chronicles 2024 S01E06 1028 Teeth 1080p Roku WEB-DL DD5 1 H 264-playWEB 43 3
The Spiderwick Chronicles 2024 S01E06 1028 Teeth 720p ROKU WEB-DL DD5 1 H 264-NTb 15 4
The Spiderwick Chronicles 2024 S01E06 1028 Teeth 1080p ROKU WEB-DL DD5 1 H 264-NTb 7 1

The Spiderwick Chronicles S01E06 - 1028 Teeth

Summary:

Mallory and Jared team up to find the Vorpal Sword, the only weapon that can stop Mulgarath.



The Spiderwick Chronicles S01E06 1028 Teeth 1080p ROKU WEB-DL DD5 1 H 264-FLUX EZTV
The Spiderwick Chronicles S1E6 Screenshot


General
Unique ID: 208189262645959619865549838191707851119 (0x9C9FCB2302D00AA27E73A6282174896F)
Complete name: The Spiderwick Chronicles S01E06 1028 Teeth 1080p ROKU WEB-DL DD5 1 H 264-FLUX.mkv
Format: Matroska
Format version: Version 4
File size: 1.04 GiB
Duration: 46 min 16 s
Overall bit rate mode: Variable
Overall bit rate: 3 220 kb/s
Frame rate: 23.976 FPS
Writing application: mkvmerge v83.0 ('Circle Of Friends') 64-bit
Writing library: libebml v1.4.5 + libmatroska v1.7.1

Video
ID: 1
Format: AVC
Format/Info: Advanced Video Codec
Format profile: High@L4
Format settings: CABAC / 3 Ref Frames
Format settings, CABAC: Yes
Format settings, Reference frames: 3 frames
Codec ID: V_MPEG4/ISO/AVC
Duration: 46 min 16 s
Bit rate mode: Variable
Bit rate: 2 834 kb/s
Maximum bit rate: 4 172 kb/s
Width: 1 920 pixels
Height: 1 080 pixels
Display aspect ratio: 16:9
Frame rate mode: Constant
Frame rate: 23.976 (24000/1001) FPS
Color space: YUV
Chroma subsampling: 4:2:0
Bit depth: 8 bits
Scan type: Progressive
Bits/(Pixel*Frame): 0.057
Stream size: 938 MiB (88%)
Language: English (US)
Default: Yes
Forced: No
Color range: Limited
Color primaries: BT.709
Matrix coefficients: BT.709

Audio
ID: 2
Format: AC-3
Format/Info: Audio Coding 3
Commercial name: Dolby Digital
Codec ID: A_AC3
Duration: 46 min 16 s
Bit rate mode: Constant
Bit rate: 384 kb/s
Channel(s): 6 channels
Channel layout: L R C LFE Ls Rs
Sampling rate: 48.0 kHz
Frame rate: 31.250 FPS (1536 SPF)
Compression mode: Lossy
Stream size: 127 MiB (12%)
Language: English (US)
Service kind: Complete Main
Default: Yes
Forced: No

Text #1
ID: 3
Format: UTF-8
Codec ID: S_TEXT/UTF8
Codec ID/Info: UTF-8 Plain Text
Duration: 45 min 19 s
Bit rate: 76 b/s
Frame rate: 0.300 FPS
Count of elements: 815
Stream size: 25.3 KiB (0%)
Language: English (US)
Default: No
Forced: No

Text #2
ID: 4
Format: UTF-8
Codec ID: S_TEXT/UTF8
Codec ID/Info: UTF-8 Plain Text
Duration: 45 min 26 s
Bit rate: 83 b/s
Frame rate: 0.326 FPS
Count of elements: 889
Stream size: 27.6 KiB (0%)
Title: SDH
Language: English (US)
Default: No
Forced: No

Text #3
ID: 5
Format: UTF-8
Codec ID: S_TEXT/UTF8
Codec ID/Info: UTF-8 Plain Text
Duration: 43 min 56 s
Bit rate: 70 b/s
Frame rate: 0.281 FPS
Count of elements: 740
Stream size: 22.8 KiB (0%)
Title: Mexican
Language: Spanish (MX)
Default: No
Forced: No

Text #4
ID: 6
Format: UTF-8
Codec ID: S_TEXT/UTF8
Codec ID/Info: UTF-8 Plain Text
Duration: 46 min 16 s
Bit rate: 67 b/s
Frame rate: 0.256 FPS
Count of elements: 710
Stream size: 22.8 KiB (0%)
Language: French
Default: No
Forced: No

Menu
00:00:00.000: en:Chapter 01 / en:Intro
00:18:04.320: en:Chapter 02
00:27:38.757: en:Chapter 03
00:31:56.514: en:Chapter 04
00:43:54.437: en:Credits

ssl  EZTV RSS EZTV Status | EZTV API | DMCA: [email protected]